<?xml version="1.0" standalone="no"?>
<!DOCTYPE svg PUBLIC "-//W3C//DTD SVG 1.1//EN" "http://www.w3.org/Graphics/SVG/1.1/DTD/svg11.dtd" >
<svg xmlns="http://www.w3.org/2000/svg">
<metadata>Generated by IcoMoon</metadata>
<defs>
<font id="televes-icons" horiz-adv-x="1024">
<font-face units-per-em="1024" ascent="960" descent="-64" />
<missing-glyph horiz-adv-x="1024" />
<glyph unicode="&#x20;" horiz-adv-x="512" d="" />
<glyph unicode="&#xe900;" glyph-name="3ghz" horiz-adv-x="1097" d="M227.337 308.297c-104.731 0-210.286 55.909-210.286 197.897h145.486c0-44.366 28.389-66.56 64.8-66.56 38.126 0 64.777 22.194 64.777 67.474 0 38.149-28.411 66.56-67.474 66.56h-20.389v126.034h20.389c43.429 0 60.366 31.063 60.366 59.429 0 39.931-27.429 60.366-57.669 60.366s-57.691-21.326-57.691-59.429h-145.577c0 118.903 90.537 190.789 203.269 190.789 117.12 0 203.223-78.103 203.223-187.269 0-69.234-33.714-102.857-65.669-123.429 34.606-23.977 72.777-62.149 72.777-137.577 0-132.297-99.383-194.286-210.331-194.286zM498.469 234.628v156.229h77.211v-99.429zM848.64 308.297c-104.731 0-210.286 55.909-210.286 197.897h145.554c0-44.366 28.411-66.56 64.823-66.56 38.126 0 64.777 22.194 64.777 67.474 0 38.149-28.411 66.56-67.474 66.56h-20.389v126.034h20.389c43.429 0 60.366 31.063 60.366 59.429 0 39.931-27.429 60.366-57.669 60.366s-57.874-21.303-57.874-59.451h-145.486c0 118.926 90.629 190.811 203.269 190.811 117.12 0 203.223-78.103 203.223-187.269 0-69.234-33.714-102.857-65.669-123.429 34.606-23.977 72.777-62.149 72.777-137.577 0-132.297-99.429-194.286-210.331-194.286zM636.389-44.732c-21.531-22.377-45.76-28.411-73.44-28.411-30.514 0-51.817 9.6-69.92 27.68-25.897 25.92-25.897 58.194-25.897 100.777s0 74.857 25.897 100.777c18.103 18.080 39.406 27.68 69.92 27.68 64.914 0 92.594-42.24 98.629-83.726h-62.469c-4.96 19.154-14.88 28.366-36.16 28.366-0.331 0.013-0.72 0.020-1.11 0.020-9.396 0-17.793-4.275-23.352-10.987l-0.041-0.050c-5.669-7.451-9.143-16-9.143-62.080s3.543-54.994 9.143-62.446c4.571-6.034 13.143-10.651 24.503-10.651 13.12 0 21.989 3.909 27.68 9.943 7.063 7.109 9.554 17.394 9.554 26.949v3.566h-37.234v51.794h98.971v-35.131c0-40.8-6.377-64.48-25.531-84.069zM833.097-70.994v100.046h-66.034v-100.046h-62.080v252.617h62.080v-97.211h66.034v97.211h62.080v-252.617zM931.497-70.994v42.926l72.754 95.451h-68.571v52.571h144.411v-42.926l-74.149-95.429h74.149v-52.571z" />
<glyph unicode="&#xe901;" glyph-name="d" horiz-adv-x="1097" d="M102.857 571.794c-0.411-23.977-1.074-55.84-1.851-91.109h-2.789l-3.246 0.137-4.389 0.206c0.777 32.709 1.463 63.063 1.966 87.451l7.543 2.286 1.394 0.434zM695.314 536.731c-34.103 68.206-126.674 91.611-173.486 96.503s-137.417 0-137.417 0v-423.977s112.183-6.857 171.657 4.869 105.143 35.086 135.474 88.709 37.897 165.737 3.771 233.897zM476.526 281.577l-1.966 281.029c8.64 0.366 55.017 1.6 82.789-9.669 33.691-13.714 70.354-47.406 72.206-101.051 1.897-56.114 1.029-62.811-6.857-89.143-12.297-41.623-37.531-67.2-74.949-76-42.857-10.171-66.194-6.263-71.223-5.166zM1097.143 220.96c0-208.32-154.72-218.057-199.794-218.057-24.434 0-631.086 62.103-696.869 68.206-47.337 4.32-86.56 47.337-104.754 90.583 4.571-0.617 9.349-1.097 14.24-1.486 0.617 0 1.257 0 1.897 0l1.257-0.114c18.286-32.823 49.143-60.366 84.343-63.84l21.577-2.149c477.737-47.566 588.869-57.531 597.989-57.531h1.074c20.937 0 64.457 0 103.086 24.274 47.84 30.103 72.091 87.429 72.091 170.469 0 21.691-9.623 453.943-9.714 458.377-0.902 15.092-3.43 29.215-7.425 42.707l0.339-1.336c-6.514 23.017-19.040 51.040-42.926 71.383-22.171 18.88-50.583 28.343-84.777 28.343-10.288-0.027-20.374-0.79-30.237-2.24l1.139 0.138c-12.823-1.76-53.531-7.154-109.943-14.674-160.869-21.326-460.274-61.097-488.663-66.971-39.314-8.114-78.994-33.829-100.777-72.343l-3.36-0.389q-6.857-0.823-13.234-1.897c20.274 50.217 67.726 87.886 119.931 97.874 42.697 8.251 601.829 93.714 659.109 102.354s105.966-9.737 149.829-43.886 53.623-114.491 53.623-114.491 10.949-470.149 10.949-493.303zM341.394 361.851c-9.394 24.663-30.949 56.434-80.183 74.72 6.24 3.977 13.554 9.143 22.194 15.429 3.451 2.491 6.857 4.96 10.263 7.337 18.903 13.394 48.96 45.28 37.92 108.709-10.88 62.697-77.211 106.24-165.029 108.526-2.667 0.076-5.805 0.12-8.953 0.12-13.145 0-26.114-0.758-38.864-2.232l1.554 0.146-3.36-0.389q-6.857-0.823-13.234-1.897c-48.686-7.931-78.537-24.046-80.251-24.96l-5.44-2.789 26.789-90.697 58.033 17.851 9.143 2.88c2.446 0.731 60.663 18.4 92.023-16.343 9.783-10.811 13.234-22.857 10.286-35.863-3.726-16.846-17.714-30.971-29.143-35.543-16.64-6.857-61.851-6.857-84.183-6.24h-2.789l-3.246 0.137-7.954 0.366-1.28-94.034h2.629c-1.006-42.469-1.989-83.474-2.629-116-19.616 5.371-36.199 11.382-52.163 18.53l2.266-0.907-8.183 3.863-27.611-97.943 3.383-3.154c1.851-1.737 19.657-17.097 81.143-28.069 3.611-0.64 7.337-1.211 11.2-1.714 4.571-0.617 9.349-1.097 14.24-1.486 0.617 0 1.257 0 1.897 0l1.257-0.114c7.246-0.503 14.72-0.731 22.331-0.731 50.949 0 108.823 11.131 146.286 36.914 46.926 32.297 87.314 92.983 59.657 165.577zM223.703 306.994c-4.571-14.743-16.183-33.92-45.234-41.669-25.28-6.857-55.771-3.131-82.057 3.109 0.594 32 1.531 74.72 2.514 118.857l33.897 0.96c35.497 1.029 68.16-10.88 85.303-30.994 7.52-8.754 12.046-29.394 5.577-50.171zM695.314 536.731c-34.103 68.206-126.674 91.611-173.486 96.503s-137.417 0-137.417 0v-423.977s112.183-6.857 171.657 4.869 105.143 35.086 135.474 88.709 37.897 165.737 3.771 233.897zM476.526 281.577l-1.966 281.029c8.64 0.366 55.017 1.6 82.789-9.669 33.691-13.714 70.354-47.406 72.206-101.051 1.897-56.114 1.029-62.811-6.857-89.143-12.297-41.623-37.531-67.2-74.949-76-42.857-10.171-66.194-6.263-71.223-5.166z" />
<glyph unicode="&#xe902;" glyph-name="8-ghz" horiz-adv-x="1097" d="M372 362.446c-27.543-27.543-75.429-54.149-146.469-54.149s-122.469 27.429-149.966 55.017c-45.28 45.257-51.497 96.754-54.994 142.88h145.509c4.411-41.714 22.194-66.56 59.429-66.56 17.76 0 29.303 4.457 40.846 16 13.303 13.326 18.629 36.389 18.629 73.669 0 70.103-23.954 89.623-59.429 89.623-42.606 0-53.234-28.389-59.429-45.234h-134.126v371.84h385.234v-131.36h-252.937v-97.623c12.411 9.76 46.171 24.846 85.189 24.846 55.040 0 96.777-18.651 122.514-44.366 51.451-51.474 58.56-108.274 58.56-167.749 0-76.32-11.52-119.817-58.56-166.834zM494.903 234.628v156.229h77.234v-99.429zM844.183 308.297c-116.251 0-212.137 63.017-212.137 194.286 0 78.994 47.040 116.251 71.017 135.794-22.171 18.629-64.8 56.8-64.8 125.143 0 119.863 97.737 187.337 205.92 187.337s205.92-67.474 205.92-187.269c0-68.343-42.629-106.514-64.8-125.143 23.931-19.543 71.017-56.8 71.017-135.794 0-131.337-95.886-194.354-212.137-194.354zM844.183 572.777c-0.007 0-0.015 0-0.023 0-36.773 0-66.583-29.81-66.583-66.583s29.81-66.583 66.583-66.583c36.773 0 66.583 29.81 66.583 66.583v0c-0.257 36.661-29.901 66.313-66.534 66.583h-0.026zM844.183 819.52c-33.339 0-60.366-27.027-60.366-60.366s27.027-60.366 60.366-60.366c33.339 0 60.366 27.027 60.366 60.366v0c0.001 0.143 0.002 0.312 0.002 0.482 0 33.074-26.812 59.886-59.886 59.886-0.169 0-0.339-0.001-0.508-0.002h0.026zM632.846-44.732c-21.646-22.377-45.714-28.411-73.463-28.411-30.491 0-51.794 9.6-69.92 27.68-25.874 25.92-25.874 58.194-25.874 100.777s0 74.857 25.874 100.777c18.126 18.080 39.429 27.68 69.92 27.68 64.937 0 92.617-42.24 98.651-83.726h-62.469c-4.96 19.154-14.88 28.366-36.183 28.366-0.328 0.013-0.714 0.020-1.101 0.020-9.406 0-17.813-4.275-23.385-10.987l-0.040-0.050c-5.646-7.451-9.143-16-9.143-62.080s3.566-54.994 9.143-62.446c4.571-6.034 13.166-10.651 24.503-10.651 13.12 0 21.989 3.909 27.68 9.943 7.086 7.109 9.577 17.394 9.577 26.949v3.566h-37.257v51.794h98.926v-35.131c0-40.8-6.286-64.48-25.44-84.069zM829.531-70.994v100.046h-66.103v-100.046h-62.011v252.617h62.011v-97.211h66.011v97.211h62.103v-252.617zM928-70.994v42.926l72.754 95.451h-68.526v52.571h144.343v-42.926l-74.126-95.429h74.126v-52.571z" />
<glyph unicode="&#xe903;" glyph-name="certificado" horiz-adv-x="1097" d="M138.789 241.211h-58.789v39.269q0 17.12-1.874 21.349c-1.234 2.834-4.023 4.251-8.297 4.251q-7.269 0-9.143-5.166c-1.326-3.429-1.966-10.88-1.966-22.309v-104.891c0-10.971 0.64-18.149 1.966-21.463s4.229-5.029 8.777-5.029 7.246 1.669 8.571 5.029 2.011 11.223 2.011 23.611v28.366h58.743v-8.8q0-35.040-4.937-49.714t-21.851-25.691q-16.96-11.086-41.783-11.040-25.806 0-42.56 9.349c-10.412 5.462-18.304 14.542-22.098 25.532l-0.096 0.319c-3.68 11.040-5.463 27.589-5.463 49.76v65.966c-0.027 1.477-0.042 3.22-0.042 4.966 0 11.134 0.621 22.123 1.831 32.934l-0.121-1.328c1.368 8.989 4.903 16.969 10.053 23.638l-0.088-0.118c5.924 7.779 13.686 13.868 22.653 17.669l0.364 0.137c9.548 4.114 20.663 6.506 32.337 6.506 0.557 0 1.112-0.005 1.666-0.016l-0.083 0.001q25.943 0 42.834-10.034t22.171-25.006q5.326-14.949 5.303-46.583zM159.863 339.566h97.92v-45.189h-39.2v-42.949h36.686v-42.971h-36.686v-49.669h43.109v-45.189h-101.829zM278.56 339.566h41.577q41.554 0 56.274-3.2c10.070-2.248 18.479-8.158 23.935-16.228l0.087-0.137q9.143-13.166 9.257-42.034 0-26.4-6.56-35.451t-25.806-10.88q17.44-4.32 23.429-11.589c3.341-3.694 5.91-8.154 7.41-13.081l0.064-0.245q1.486-6.034 1.463-33.394v-59.566h-54.56v74.994c0 12.114-0.937 19.589-2.857 22.469s-6.857 4.32-14.994 4.32v-101.829h-58.72zM337.28 300.914v-50.286q9.897 0 13.897 2.72c2.651 1.829 3.954 7.703 3.954 17.646v12.434c0 7.154-1.257 11.886-3.817 14.103s-7.223 3.383-14.034 3.383zM550.72 339.566v-45.189h-34.857v-180.571h-58.72v180.571h-34.766v45.189zM622.834 339.566v-225.851h-58.72v225.851zM646.423 339.566h99.451v-45.189h-40.731v-42.949h36.274v-42.971h-36.274v-94.857h-58.72zM818.857 339.566v-225.851h-58.72v225.851zM842.446 339.566h97.92v-45.189h-39.2v-42.949h36.686v-42.971h-36.686v-49.669h43.109v-45.189h-101.829zM961.143 339.566h43.931q42.537 0 57.554-3.909t22.857-12.846c4.856-5.391 8.307-12.14 9.72-19.609l0.040-0.254q1.966-10.971 1.943-43.040v-79.086q0-30.423-2.857-40.686c-1.639-6.453-5.153-11.926-9.921-15.963l-0.045-0.037c-4.914-3.877-10.837-6.706-17.306-8.044l-0.271-0.047c-8.224-1.488-17.691-2.34-27.355-2.34-1.464 0-2.924 0.020-4.379 0.058l0.215-0.005h-74.126zM1019.863 300.914v-148.571q12.709 0 15.611 5.097c1.966 3.36 2.949 12.617 2.949 27.68v87.771c0.045 1.209 0.071 2.628 0.071 4.053 0 5.503-0.383 10.916-1.124 16.215l0.070-0.611c-0.528 2.721-2.166 4.981-4.414 6.331l-0.043 0.024c-2.309 1.349-6.697 2.011-13.12 2.011zM213.28 761.806v-361.349h-90.171v193.829q0 41.966-2.011 50.423c-1.496 5.855-5.573 10.533-10.917 12.822l-0.123 0.047q-9.143 4.32-40.297 4.32h-8.937v42.103q65.417 14.057 99.337 57.851zM461.029 639.497v-120.64q0-41.143-4.571-59.817c-3.454-13.605-9.885-25.399-18.584-35.119l0.069 0.079c-8.925-10.453-20.363-18.506-33.39-23.252l-0.553-0.176c-12.688-4.542-27.327-7.167-42.578-7.167-0.644 0-1.288 0.005-1.93 0.014l0.097-0.001q-32.343 0-53.783 7.497c-13.773 4.563-25.351 12.644-34.048 23.189l-0.1 0.125c-7.807 9.428-13.98 20.539-17.884 32.668l-0.196 0.703q-5.349 17.531-5.371 55.68v126.217q0 49.783 8.594 74.537t34.286 39.749q25.531 14.949 61.92 14.949c0.66 0.012 1.439 0.019 2.219 0.019 18.398 0 35.903-3.824 51.763-10.721l-0.839 0.325q23.406-10.354 34.994-25.326c7.399-9.459 12.874-20.794 15.622-33.156l0.104-0.558q4.137-18.72 4.16-59.817zM370.834 669.874q0 28.777-2.789 36.023c-1.851 4.823-6.217 7.269-13.051 7.269s-11.109-2.583-13.257-7.726-3.269-16.983-3.269-35.566v-176.343q0-31.474 3.040-37.943c1.989-4.32 6.354-6.469 13.051-6.469s11.063 2.514 13.166 7.589 3.109 16.434 3.109 34.149zM706.103 639.497v-120.64q0-41.143-4.457-59.817c-3.475-13.6-9.903-25.389-18.586-35.122l0.072 0.082c-8.951-10.41-20.402-18.424-33.433-23.139l-0.555-0.175c-12.7-4.542-27.351-7.167-42.615-7.167-0.632 0-1.262 0.004-1.891 0.013l0.095-0.001q-32.366 0-53.806 7.497c-13.766 4.563-25.336 12.644-34.025 23.188l-0.101 0.126c-7.814 9.428-13.994 20.539-17.907 32.668l-0.196 0.704q-5.349 17.531-5.349 55.68v126.103q0 49.783 8.594 74.537t34.171 39.749q25.509 14.949 61.92 14.949c0.664 0.012 1.448 0.019 2.233 0.019 18.385 0 35.878-3.824 51.725-10.721l-0.837 0.325q23.451-10.354 35.040-25.326c7.415-9.455 12.899-20.791 15.645-33.158l0.104-0.556q4.16-18.72 4.16-59.817zM615.931 669.874q0 28.777-2.789 36.023c-1.851 4.823-6.217 7.269-13.051 7.269s-11.131-2.583-13.28-7.726-3.246-16.983-3.246-35.566v-176.343c0-20.983 1.029-33.623 3.017-37.943s6.377-6.469 13.051-6.469 11.086 2.514 13.166 7.589 3.131 16.434 3.131 34.149zM863.474 700.206v-62.034q0-24.343-4.571-36.571t-19.634-21.211q-15.086-9.006-39.84-9.029-28.594 0-43.429 8.594t-20.206 20.571q-5.257 12.069-5.257 34.606v65.074q0 26.811 5.463 39.611t21.12 20.891q15.589 8.023 38.606 8.023 25.44 0 41.28-8.823t21.211-21.303q5.234-12.526 5.257-38.4zM806.331 716.068q0 14.263-1.44 17.623c-0.983 2.286-3.611 3.337-7.931 3.337s-6.629-1.189-7.817-3.566-1.76-8.183-1.76-17.394v-91.063c0-10.446 0.503-16.663 1.554-18.766s3.794-3.131 8.251-3.131c3.863 0 6.377 1.189 7.474 3.566s1.669 7.977 1.669 16.754zM968.617 768.64l-141.326-375.109h-34.286l141.714 375.2zM1031.086 525.714v-62.263q0-24.137-4.571-36.389t-19.657-21.326q-15.040-9.006-39.84-9.143-28.32 0-43.429 8.686c-10.034 5.829-16.823 12.731-20.297 20.777s-5.257 19.497-5.257 34.286v65.371q0 26.56 5.486 39.406t21.074 20.983q15.634 8.137 38.606 8.137 25.669 0 41.509-8.937t21.097-21.417q5.28-12.571 5.28-38.171zM973.943 541.348c0 9.531-0.48 15.429-1.44 17.737s-3.611 3.474-7.931 3.474-6.606-1.211-7.703-3.589-1.669-8.274-1.669-17.623v-91.063q0-15.406 1.554-18.514c1.029-2.080 3.726-3.131 8.046-3.131s6.537 1.143 7.589 3.474 1.554 7.909 1.554 16.846z" />
<glyph unicode="&#xe904;" glyph-name="acero-inoxidable-316" horiz-adv-x="1097" d="M86.354 404.366h-86.354v351.703h86.354zM432 404.366h-75.429l-112.686 176.823v-176.823h-86.354v351.703h75.611l112.617-176.823v176.823h86.24zM759.634 580.206v-11.817q0-29.417-2.034-50.651c-1.478-15.123-4.931-29.021-10.123-42.036l0.363 1.031c-5.579-13.948-13.595-25.837-23.619-35.688l-0.015-0.015c-12.014-12.261-26.304-22.239-42.195-29.258l-0.868-0.342q-23.52-10.011-55.337-10.011c-0.401-0.004-0.875-0.006-1.349-0.006-13.254 0-26.119 1.669-38.395 4.809l1.070-0.232c-12.026 3.112-22.578 7.592-32.256 13.381l0.553-0.307c-10.489 6.367-19.546 13.635-27.551 21.926l-0.038 0.040c-14.365 13.857-24.739 31.761-29.285 51.876l-0.132 0.696q-6.24 29.44-6.263 74.789v23.611q0 45.371 6.263 74.926c4.659 20.86 15.036 38.814 29.387 52.68l0.030 0.029c12.036 12.356 26.396 22.381 42.383 29.378l0.863 0.337q23.246 9.6 54.857 9.646t55.2-9.783c16.802-7.29 31.124-17.261 43.106-29.528l0.025-0.026c10.051-9.896 18.069-21.825 23.389-35.124l0.245-0.693c4.815-12.023 8.268-25.966 9.708-40.501l0.052-0.642q2.057-21.211 2.034-50.674zM673.28 580.206q0 44.891-3.017 61.303t-9.76 25.143c-3.647 4.8-8.395 8.58-13.878 10.997l-0.225 0.088c-5.872 2.759-12.752 4.369-20.008 4.369-0.198 0-0.396-0.001-0.593-0.004h0.030c-0.201 0.003-0.437 0.005-0.674 0.005-7.018 0-13.671-1.56-19.632-4.353l0.284 0.12c-5.777-2.662-10.618-6.463-14.41-11.148l-0.058-0.074c-2.987-3.92-5.412-8.471-7.037-13.386l-0.094-0.328c-2.183-7.313-3.684-15.805-4.192-24.564l-0.014-0.304q-1.486-16.754-1.44-47.886t1.44-47.634c0.513-9.010 2.015-17.456 4.406-25.519l-0.2 0.788c1.745-5.166 4.166-9.645 7.213-13.62l-0.082 0.111q12.274-16 34.491-16t34.743 16c4.804 7.156 8.238 15.64 9.712 24.78l0.048 0.363q2.949 15.886 2.949 60.754zM1097.143 404.366h-98.651l-57.92 108.297-57.646-108.297h-98.926l109.714 180.434-102.857 171.269h98.286l51.36-99.131 51.497 99.131h98.423l-102.857-171.269zM462.4 170.674c0.004-0.243 0.006-0.53 0.006-0.818 0-7.907-1.685-15.421-4.716-22.202l0.138 0.346c-2.862-6.433-6.959-11.847-12.027-16.153l-0.064-0.053c-5.093-4.19-11.089-7.506-17.629-9.608l-0.382-0.106c-6.379-2.131-13.723-3.36-21.355-3.36-0.086 0-0.173 0-0.259 0h0.013c-0.098 0-0.215-0.001-0.331-0.001-7.296 0-14.34 1.078-20.982 3.082l0.513-0.133c-6.907 2.097-12.902 5.328-18.089 9.518l0.1-0.078c-5.446 4.424-9.786 9.994-12.685 16.358l-0.115 0.282c-2.903 6.569-4.593 14.23-4.593 22.286 0 0.546 0.008 1.091 0.023 1.634l-0.002-0.080h38.857c-0.023-0.335-0.036-0.725-0.036-1.119 0-4.693 1.881-8.947 4.93-12.049l-0.002 0.002c3.115-2.842 7.276-4.582 11.845-4.582 0.215 0 0.43 0.004 0.643 0.012l-0.031-0.001c0.251-0.013 0.545-0.020 0.841-0.020 4.534 0 8.66 1.746 11.742 4.602l-0.011-0.010q4.709 4.571 4.686 13.44c0.008 0.193 0.012 0.42 0.012 0.648 0 4.739-1.907 9.032-4.996 12.154l0.001-0.001c-3.162 3.091-7.492 4.997-12.267 4.997-0.252 0-0.502-0.005-0.751-0.016l0.036 0.001h-5.417v33.646h5.417c0.339-0.027 0.734-0.043 1.132-0.043 4.351 0 8.267 1.862 10.995 4.832l0.010 0.011c2.475 2.931 3.979 6.751 3.979 10.923 0 0.089-0.001 0.178-0.002 0.267v-0.013c0.010 0.208 0.016 0.451 0.016 0.696 0 8.508-6.897 15.406-15.406 15.406s-15.406-6.897-15.406-15.406c0-0.165 0.003-0.328 0.008-0.492l-0.001 0.024h-38.789c-0.007 0.316-0.011 0.689-0.011 1.063 0 9.57 2.673 18.516 7.314 26.131l-0.126-0.222c4.754 7.635 11.378 13.701 19.245 17.658l0.275 0.125c8.052 3.91 17.515 6.195 27.512 6.195 10.146 0 19.742-2.354 28.271-6.546l-0.377 0.168c8.16-4.101 14.789-10.209 19.402-17.692l0.118-0.205c4.395-7.175 6.998-15.861 6.998-25.155 0-0.221-0.001-0.441-0.004-0.661v0.033q0-21.806-17.577-33.006c3.599-2.451 6.725-5.185 9.491-8.251l0.041-0.046c2.986-3.386 5.403-7.36 7.045-11.715l0.087-0.263c1.716-4.585 2.709-9.884 2.709-15.414 0-0.359-0.004-0.717-0.012-1.073l0.001 0.053zM560.366 147.428h-38.857v100.069l-36.069-31.269v41.44l36.023 31.383h38.857zM710.217 201.28c0.016-0.493 0.025-1.074 0.025-1.656 0-10.586-2.941-20.485-8.051-28.925l0.14 0.25c-5.086-8.136-12.258-14.544-20.776-18.57l-0.298-0.127c-8.335-3.93-18.106-6.225-28.412-6.225-0.353 0-0.706 0.003-1.059 0.008l0.053-0.001q-25.029 0-41.623 14.377t-16.617 40.869c-0.007 0.424-0.011 0.924-0.011 1.425 0 9.921 1.593 19.47 4.537 28.405l-0.183-0.641c4.453 12.191 9.266 22.501 14.837 32.325l-0.551-1.056 31.863 58.263h41.92l-39.154-68.571c3.52 1.943 9.143 2.926 16.64 2.926 6.228-0.003 12.167-1.238 17.587-3.472l-0.307 0.112c5.838-2.419 10.812-5.831 14.939-10.070l0.009-0.010c4.481-4.679 8.052-10.271 10.402-16.464l0.112-0.336c2.522-6.523 3.983-14.072 3.983-21.962 0-0.307-0.002-0.613-0.007-0.918l0.001 0.046zM671.36 201.28c0.025 0.389 0.039 0.843 0.039 1.3 0 5.561-2.077 10.637-5.498 14.494l0.020-0.023c-3.588 3.535-8.516 5.718-13.954 5.718s-10.367-2.183-13.957-5.721l0.002 0.002c-3.391-4.296-5.439-9.789-5.439-15.76s2.048-11.464 5.48-15.814l-0.041 0.054c3.588-3.535 8.516-5.718 13.954-5.718s10.367 2.183 13.957 5.721l-0.002-0.002c3.357 3.831 5.404 8.883 5.404 14.412 0 0.422-0.012 0.841-0.035 1.257l0.003-0.058z" />
<glyph unicode="&#xe905;" glyph-name="actualicacion-automatica" horiz-adv-x="1097" d="M1049.417 392.297c-30.13 38.19-72.213 65.763-120.546 77.127l-1.466 0.29c14.704 22.347 23.455 49.748 23.455 79.192 0 40.289-16.385 76.752-42.855 103.088l-0.006 0.006q-42.88 42.857-103.429 42.857c-0.561 0.008-1.224 0.013-1.888 0.013-35.767 0-68.394-13.446-93.102-35.559l0.133 0.117c-44.958 107.494-149.24 181.659-270.851 181.714h-0.007q-121.143 0-206.88-85.714t-85.691-206.857c0-4.937 0.389-13.143 1.143-24.571-87.766-41.693-147.374-129.593-147.429-231.422v-0.007q0-105.714 75.131-180.869t180.869-75.131h621.714q90.857 0 155.131 64.297t64.297 155.131c0.007 0.645 0.011 1.407 0.011 2.17 0 51.045-18.015 97.882-48.034 134.501l0.297-0.374zM411.543 332.868c-2.622 2.503-4.252 6.025-4.252 9.927 0 0.054 0 0.107 0.001 0.161v-0.008 157.714h-100.366c-0.159-0.007-0.346-0.010-0.534-0.010-7.65 0-13.851 6.201-13.851 13.851 0 0.172 0.003 0.344 0.009 0.515l-0.001-0.025c0.205 4.188 1.908 7.943 4.579 10.774l157.272 157.272c2.691 2.5 6.309 4.033 10.286 4.033s7.595-1.534 10.295-4.042l157.705-157.705c2.492-2.538 4.031-6.020 4.031-9.862 0-0.165-0.003-0.33-0.008-0.493l0.001 0.024c-0.102-7.874-6.458-14.23-14.322-14.331h-100.376v-157.714c-0.102-7.874-6.458-14.23-14.322-14.331h-86.067c-0.020 0-0.043 0-0.067 0-3.947 0-7.504 1.667-10.006 4.336l-0.007 0.007zM779.726 273.44l-157.28-157.28c-2.695-2.49-6.312-4.017-10.286-4.017s-7.591 1.527-10.296 4.026l0.010-0.009-157.714 157.714c-2.522 2.614-4.076 6.178-4.076 10.104 0 7.98 6.419 14.46 14.376 14.559h100.375v157.714c0 0.028 0 0.060 0 0.093 0 7.944 6.382 14.397 14.298 14.513h86.068c7.874-0.102 14.23-6.458 14.331-14.322v-157.724h100.389c0.153 0.006 0.332 0.009 0.512 0.009 7.65 0 13.851-6.201 13.851-13.851 0-0.172-0.003-0.344-0.009-0.514l0.001 0.025c-0.17-4.227-1.869-8.027-4.557-10.889l0.008 0.009z" />
<glyph unicode="&#xe906;" glyph-name="actualizar" horiz-adv-x="1097" d="M1060.571 865.531v-298.674c-0.329-23.431-19.224-42.342-42.618-42.697h-298.708c-18.651 0-31.794 8.914-39.314 26.697q-11.429 25.989 9.303 45.989l92.023 92q-98.697 91.429-232.686 91.314c-0.328 0.001-0.716 0.002-1.105 0.002-47.431 0-92.544-9.924-133.377-27.808l2.139 0.835c-82.559-35.031-146.954-99.441-181.13-179.8l-0.836-2.211c-17.079-39.037-27.017-84.529-27.017-132.343s9.938-93.305 27.862-134.523l-0.844 2.18c35.015-82.555 99.41-146.951 179.755-181.13l2.211-0.836c38.659-17.064 83.738-26.996 131.137-26.996 0.424 0 0.848 0.001 1.271 0.002h-0.065c0.301-0.001 0.656-0.002 1.012-0.002 109.018 0 205.976 51.635 267.751 131.783l0.585 0.789q4.571 6.651 15.337 8c0.243 0.009 0.528 0.014 0.815 0.014 6.087 0 11.64-2.286 15.848-6.046l-0.023 0.020 91.429-91.977c3.818-3.374 6.24-8.252 6.331-13.698v-0.016c0.017-0.321 0.027-0.697 0.027-1.076 0-5.317-1.901-10.19-5.061-13.977l0.028 0.035c-47.305-57.293-106.061-103.35-172.956-135.024l-3.044-1.296c-63.311-30.43-137.646-48.209-216.134-48.209-0.684 0-1.368 0.001-2.051 0.004h0.105c-0.45-0.001-0.982-0.002-1.514-0.002-71.27 0-139.046 14.963-200.356 41.918l3.196-1.253q-94.674 40.709-163.337 109.326t-109.326 163.337c-25.703 58.593-40.662 126.887-40.662 198.674s14.959 140.081 41.929 201.935l-1.267-3.26q40.663 94.651 109.326 163.337t163.337 109.326c58.573 25.71 126.846 40.672 198.614 40.672 68.402 0 133.629-13.592 193.128-38.222l-3.353 1.23c63.092-25.689 117.156-60.939 163.207-104.564l-0.236 0.221 86.674 86.011q19.291 20.571 46.674 9.326 25.966-11.36 25.966-39.337z" />
<glyph unicode="&#xe907;" glyph-name="ajustes" horiz-adv-x="1097" d="M1054.651 661.668c-3.346 3.846-8.248 6.263-13.715 6.263-0.321 0-0.641-0.008-0.958-0.025l0.044 0.002q-5.623 0-43.954-22.126t-84.571-50.491c-30.72-18.926-47.131-28.96-49.211-30.24l-120.274 66.697v139.634l182.606 105.326c6.629 4.571 9.989 10.377 9.989 17.44s-3.36 12.846-9.989 17.44q-27.36 18.697-66.926 28.983c-22.655 6.319-48.705 10.058-75.593 10.285l-0.132 0.001q-115.291 0-197.257-81.943t-81.851-197.257q0-115.337 81.943-197.257t197.257-81.966q87.863 0 161.12 52.023t102.514 135.566q14.377 41.76 14.331 66.080c0.007 0.216 0.011 0.469 0.011 0.723 0 5.665-2.034 10.854-5.412 14.878l0.029-0.036zM485.303 554.468l-424.434-424.434c-14.598-14.082-23.664-33.815-23.664-55.665 0-0.367 0.003-0.733 0.008-1.099l-0.001 0.055c-0.014-0.54-0.022-1.175-0.022-1.812 0-21.427 9.095-40.731 23.634-54.26l0.045-0.042 66.057-67.291c14.439-14.258 34.291-23.065 56.199-23.065 0.195 0 0.39 0.001 0.585 0.002h-0.030c0.405-0.008 0.883-0.012 1.361-0.012 21.441 0 40.818 8.833 54.692 23.059l0.015 0.016 425.143 425.143c-82.095 33.526-145.985 97.408-178.739 177.344l-0.781 2.153zM251.589 85.166c-7.042-6.858-16.673-11.088-27.291-11.088-21.612 0-39.131 17.52-39.131 39.131s17.52 39.131 39.131 39.131c21.603 0 39.117-17.506 39.131-39.105v-0.001c0.001-0.108 0.002-0.235 0.002-0.363 0-10.887-4.539-20.714-11.828-27.692l-0.014-0.013z" />
<glyph unicode="&#xe908;" glyph-name="alta-definicion" horiz-adv-x="1097" d="M485.6 115.52h-158.743v256.366h-169.006v-256.366h-158.789v646.674h158.789v-248.846h169.006v248.846h158.766zM1098.080 438.857v-52.754c0.020-1.888 0.031-4.118 0.031-6.351 0-25.951-1.531-51.545-4.508-76.696l0.293 3.047c-3.243-24.264-9.856-46.257-19.417-66.59l0.583 1.378q-14.629-32.16-44.32-61.851-63.314-63.451-174.149-63.451h-239.726v646.606h239.726q110.811 0 174.149-63.406 29.714-29.714 44.32-61.897c8.972-18.954 15.584-40.947 18.706-64.047l0.129-1.165c2.683-22.112 4.214-47.715 4.214-73.676 0-2.224-0.011-4.445-0.034-6.663l0.003 0.339zM939.429 438.857q0 79.84-3.36 105.349c-2.286 17.006-6.743 30.423-13.554 40.137q-24.434 36.411-76.503 36.411h-70.354v-363.726h70.263q52.046 0 76.503 36.343c4.47 6.556 8.047 14.163 10.317 22.315l0.129 0.542c1.92 7.566 3.497 20.571 4.571 38.857s1.989 46.217 1.989 83.771z" />
<glyph unicode="&#xe909;" glyph-name="alta-definicion_1" horiz-adv-x="1097" d="M249.554 273.006h-81.417v131.566h-86.697v-131.497h-81.44v331.634h81.44v-127.634h86.697v127.634h81.417zM549.76 438.857v-27.063c0.010-0.978 0.016-2.133 0.016-3.289 0-13.338-0.787-26.493-2.316-39.42l0.151 1.566c-1.669-12.443-5.063-23.721-9.968-34.147l0.299 0.707c-5.898-12.3-13.517-22.797-22.692-31.699l-0.028-0.027q-32.503-32.549-89.326-32.549h-122.971v331.771h122.971q56.8 0 89.326-32.526c9.197-8.939 16.815-19.443 22.435-31.092l0.285-0.656c4.602-9.719 7.996-20.996 9.602-32.841l0.066-0.599c1.378-11.365 2.165-24.524 2.165-37.867 0-1.152-0.006-2.303-0.018-3.452l0.001 0.176zM468.32 438.857q0 40.937-1.714 54.034c-0.682 7.699-3.144 14.704-6.97 20.763l0.113-0.191q-12.549 18.697-39.246 18.674h-36.137v-186.537h36.046q26.72 0 39.246 18.629c2.291 3.364 4.129 7.265 5.304 11.445l0.067 0.281c1.209 5.849 2.030 12.696 2.279 19.689l0.006 0.22q1.029 14.126 1.006 42.994zM817.189 532.137h-81.669v-259.131h-81.44v259.131h-81.691v72.571h244.8zM1097.143 604.708l-109.897-331.703h-60.731l-109.417 331.703h84.411l55.726-185.417 55.040 185.417z" />
<glyph unicode="&#xe90a;" glyph-name="alta-definicion-3ghz" horiz-adv-x="1097" d="M316.183 315.634v251.589h-165.92v-251.589h-156.137v635.223h156.137v-244.571h165.92v244.571h156.137v-635.223zM1042.423 422.674c-43.726-70.491-110.651-107.040-206.080-107.040h-235.429v635.223h235.429c95.429 0 162.286-36.571 206.080-107.086 31.223-50.811 31.223-100.914 31.223-210.629s0-159.611-31.223-210.469zM900.571 776c-14.24 21.394-35.68 35.68-74.926 35.68h-68.571v-356.823h68.571c39.246 0 60.686 14.286 74.926 35.68 12.503 17.829 16.96 34.789 16.96 142.743-0.023 107.017-4.48 124.869-16.96 142.72zM370.286-73.143c-42.080 0-84.571 22.469-84.571 79.543h58.514c0-17.829 11.429-26.743 26.011-26.743 15.36 0 26.057 8.914 26.057 27.109 0.004 0.175 0.007 0.382 0.007 0.588 0 14.454-11.717 26.171-26.171 26.171-0.332 0-0.662-0.006-0.991-0.018l0.047 0.001h-8.046v50.651h8.206c17.463 0 24.251 12.48 24.251 23.886 0 16-11.063 24.251-23.2 24.251s-23.177-8.526-23.177-23.886h-58.514c0 47.794 36.389 76.686 81.669 76.686 47.109 0 81.691-31.383 81.691-75.246 0-27.817-13.554-41.371-26.4-49.6 13.92-9.623 29.257-24.937 29.257-55.269-0.069-53.143-39.931-78.126-84.64-78.126zM656.914-44.594c-21.76-22.469-46.011-28.549-73.829-28.549-30.674 0-52.069 9.646-70.286 27.817-25.943 26.057-25.943 58.491-25.943 101.303s0 75.246 26.011 101.303c18.286 18.286 39.611 27.817 70.286 27.817 65.257 0 93.097-42.446 99.154-84.16h-62.88c-5.006 19.269-14.949 28.526-36.366 28.526-0.322 0.012-0.7 0.019-1.080 0.019-9.449 0-17.896-4.292-23.497-11.032l-0.040-0.050c-5.691-7.497-9.28-16-9.28-62.423s3.589-55.269 9.28-62.766c4.571-6.057 13.211-10.697 24.617-10.697 13.189 0 22.103 3.909 27.817 9.989 7.131 7.131 9.623 17.486 9.623 27.086v3.566h-37.417v52.091h99.497v-35.314c0-41.029-6.4-64.914-25.669-84.526zM854.651-70.994v100.571h-66.286v-100.571h-62.4v253.851h62.4v-97.714h66.286v97.714h62.4v-253.943zM953.554-70.994v43.154l73.143 96h-68.846v52.731h145.166v-43.177l-74.446-96h74.514v-52.8z" />
<glyph unicode="&#xe90b;" glyph-name="alto" horiz-adv-x="1097" d="M446.491 821.874c4.703-4.703 11.2-7.612 18.377-7.612s13.674 2.909 18.377 7.612l40.823 40.8v-119.086c-0.007-0.23-0.011-0.5-0.011-0.771 0-14.366 11.646-26.011 26.011-26.011s26.011 11.646 26.011 26.011c0 0.271-0.004 0.541-0.012 0.81l0.001-0.039v117.92l40.823-40.937c4.714-4.708 11.223-7.62 18.411-7.62 14.389 0 26.054 11.665 26.054 26.054 0 7.2-2.921 13.718-7.642 18.434l-85.852 85.806c-4.707 4.705-11.208 7.614-18.389 7.614s-13.682-2.91-18.389-7.614l-84.571-84.571c-4.724-4.706-7.647-11.218-7.647-18.411 0-7.182 2.914-13.684 7.624-18.388v0zM653.074 55.84c-4.707 4.705-11.208 7.614-18.389 7.614s-13.682-2.91-18.389-7.614l-40.823-40.8v119.086c0.007 0.23 0.011 0.5 0.011 0.771 0 14.366-11.646 26.011-26.011 26.011s-26.011-11.646-26.011-26.011c0-0.271 0.004-0.541 0.012-0.81l-0.001 0.039v-117.92l-40.823 40.823c-4.705 4.708-11.207 7.62-18.389 7.62-14.358 0-25.997-11.639-25.997-25.997 0-7.176 2.908-13.673 7.609-18.377l85.783-85.806c4.707-4.705 11.208-7.614 18.389-7.614s13.682 2.91 18.389 7.614l84.571 84.571c4.737 4.709 7.67 11.229 7.67 18.434 0 7.171-2.904 13.664-7.601 18.366v0zM586.491 432.183v-125.714h-75.84v125.714l-93.166 182.857h82.766l48.526-110.926 48 110.926h82.766z" />
<glyph unicode="&#xe90c;" glyph-name="aluminio" horiz-adv-x="1097" d="M597.486 113.074h-167.109l-30.377 96.96h-200.686l-31.703-96.96h-167.611l236.846 651.566h123.817zM357.943 343.68l-54.857 173.714-58.514-173.714zM1097.143 113.074h-433.486v651.566h160v-508.983h273.486z" />
<glyph unicode="&#xe90d;" glyph-name="ancho" horiz-adv-x="1097" d="M958.926 540.731c-5.030-5.044-8.141-12.004-8.141-19.691s3.11-14.648 8.141-19.692l43.748-43.748h-127.611c-0.238 0.007-0.517 0.011-0.798 0.011-15.388 0-27.863-12.475-27.863-27.863s12.475-27.863 27.863-27.863c0.281 0 0.56 0.004 0.839 0.012l-0.041-0.001h126.354l-43.703-43.726c-5.042-5.042-8.161-12.008-8.161-19.703 0-15.389 12.475-27.864 27.864-27.864 7.694 0 14.66 3.119 19.703 8.161v0l91.909 91.931c5.041 5.039 8.16 12.001 8.16 19.691s-3.118 14.653-8.16 19.691l-90.652 90.652c-5.045 5.056-12.020 8.185-19.726 8.185s-14.681-3.128-19.725-8.184l-0.001-0.001zM138.217 319.383c5.032 5.047 8.143 12.012 8.143 19.703s-3.111 14.656-8.143 19.704l-43.748 43.725h127.611c0.238-0.007 0.517-0.011 0.798-0.011 15.388 0 27.863 12.475 27.863 27.863s-12.475 27.863-27.863 27.863c-0.281 0-0.56-0.004-0.839-0.012l0.041 0.001h-126.354l43.703 43.749c5.042 5.042 8.161 12.008 8.161 19.703 0 15.389-12.475 27.864-27.864 27.864-7.694 0-14.66-3.119-19.703-8.161l-91.863-91.931c-5.041-5.039-8.16-12.001-8.16-19.691s3.118-14.653 8.16-19.691l90.652-90.674c5.047-5.032 12.012-8.143 19.703-8.143s14.656 3.111 19.704 8.143l-0.001-0.001zM601.6 273.577l-54.309 101.669-54.331-101.669h-92.846l103.063 169.463-96.571 161.097h92.389l48.297-93.326 48.274 93.326h92.434l-96.571-161.097 103.086-169.463z" />
<glyph unicode="&#xe90e;" glyph-name="android" horiz-adv-x="1097" d="M924.343 630.194c-34.126 0-62.4-28.411-62.4-63.794v-246.537c0-35.109 28.274-64 62.4-64s62.149 28.846 62.149 64v246.537c0 35.383-27.954 63.794-62.149 63.794zM172.731 630.194c-34.057 0-62.080-28.411-62.080-63.794v-246.537c0-35.109 28.023-64 62.080-64 34.56 0 62.583 28.846 62.583 64v246.537c0.002 0.204 0.004 0.446 0.004 0.688 0 34.67-27.958 62.811-62.559 63.106h-0.028zM272.64 628v-451.429c-0.001-0.109-0.001-0.237-0.001-0.366 0-26.51 21.49-48 48-48 0.073 0 0.146 0 0.218 0h55.463v-137.829c0-35.109 28.366-63.52 62.057-63.52 34.777 0.051 62.95 28.255 62.95 63.040 0 0.169-0.001 0.337-0.002 0.506v-0.026 137.829h97.143v-137.829c0-35.109 27.429-63.52 62.126-63.52 34.562 0.283 62.471 28.367 62.471 62.969 0 0.194-0.001 0.387-0.003 0.58v-0.030 137.829h55.52c0.062 0 0.134 0 0.207 0 26.51 0 48 21.49 48 48 0 0.129-0.001 0.257-0.002 0.386v-0.020 451.429zM679.611 861.714l51.451 74.446c1.191 1.584 1.907 3.583 1.907 5.75 0 3.067-1.435 5.798-3.669 7.56l-0.020 0.016c-1.367 0.817-3.014 1.3-4.775 1.3-3.131 0-5.905-1.528-7.618-3.879l-0.019-0.027-53.623-77.714c-34.045 13.742-73.526 21.715-114.869 21.715s-80.823-7.973-116.988-22.465l2.119 0.75-53.234 77.714c-1.83 2.406-4.694 3.943-7.917 3.943-1.832 0-3.548-0.497-5.021-1.363l0.047 0.025c-3.954-2.606-4.777-8.937-1.669-13.326l51.337-74.446c-82.011-37.28-138.24-109.12-145.394-193.371h553.829c-7.040 84.229-64.343 156.069-145.874 193.371zM431.246 744.571c-17.168 0-31.086 13.918-31.086 31.086s13.918 31.086 31.086 31.086v0c17.168 0 31.086-13.918 31.086-31.086s-13.918-31.086-31.086-31.086v0zM669.417 744.571c-17.168 0-31.086 13.918-31.086 31.086s13.918 31.086 31.086 31.086v0c16.66-0.659 29.916-14.324 29.916-31.086s-13.256-30.427-29.857-31.084l-0.060-0.002z" />
<glyph unicode="&#xe90f;" glyph-name="apagado-encendido" horiz-adv-x="1097" d="M1021.166 391.726c-0.915-66.431-15.775-129.164-41.773-185.717l1.179 2.86q-38.857-86.72-103.406-149.074t-152.389-98.423c-52.142-21.886-112.743-34.601-176.314-34.601-68.968 0-134.44 14.966-193.347 41.828l2.919-1.192q-86.857 38.857-149.12 103.383t-98.446 152.503c-21.869 51.769-34.577 111.959-34.577 175.117 0 3.124 0.031 6.24 0.093 9.349l-0.007-0.466c2.089 153.718 77.966 289.285 193.746 373.14l1.363 0.94c12.8 9.64 28.968 15.439 46.49 15.439 4.424 0 8.761-0.37 12.983-1.080l-0.456 0.063c21.3-2.897 39.391-14.647 50.717-31.356l0.163-0.255c9.528-12.442 15.267-28.223 15.267-45.344 0-4.606-0.415-9.114-1.21-13.491l0.069 0.458c-3.147-21.342-14.683-39.515-31.089-51.365l-0.226-0.155c-39.621-28.744-71.67-65.477-94.238-108.011l-0.825-1.704c-22.216-41.962-35.259-91.728-35.259-144.541 0-42.454 8.428-82.939 23.702-119.874l-0.763 2.084c31.093-76.908 89.652-137.271 163.226-169.978l1.985-0.788c37.319-17.052 80.948-26.992 126.899-26.992 42.32 0 82.671 8.431 119.464 23.706l-2.066-0.76c76.863 31.094 137.186 89.635 169.864 163.181l0.788 1.985c16.499 35.751 26.366 77.52 26.946 121.529l0.002 0.208c0.043 1.917 0.067 4.177 0.067 6.442 0 48.88-11.32 95.116-31.481 136.229l0.809-1.825c-22.049 45.229-52.952 83-90.718 112.36l-0.71 0.531c-16.246 12.475-27.281 31.039-29.682 52.221l-0.032 0.351c-0.487 3.209-0.765 6.911-0.765 10.678 0 17.964 6.326 34.451 16.871 47.354l-0.106-0.134c12.075 16.578 30.649 27.796 51.904 29.896l0.302 0.024c3.028 0.424 6.527 0.667 10.082 0.667 18.292 0 35.086-6.416 48.253-17.121l-0.141 0.111c111.647-86.413 182.833-220.453 182.833-371.119 0-3.235-0.033-6.463-0.098-9.683l0.008 0.481zM635.109 870.857l-6.537-393.897c-0.494-42.896-35.383-77.479-78.349-77.479-22.307 0-42.437 9.322-56.707 24.283l-0.029 0.031c-13.864 13.754-22.446 32.814-22.446 53.878 0 0.658 0.008 1.314 0.025 1.967l-0.002-0.097 6.651 393.829c0.13 21.713 9.372 41.243 24.093 54.976l0.045 0.041c13.977 13.877 33.233 22.454 54.492 22.454 22.157 0 42.138-9.316 56.239-24.245l0.035-0.037c13.903-13.739 22.513-32.808 22.513-53.887 0-0.638-0.008-1.275-0.024-1.91l0.002 0.094z" />
<glyph unicode="&#xe910;" glyph-name="appel" horiz-adv-x="1097" d="M987.863 199.497c-23.84-52.937-35.497-77.28-66.126-124.411-42.743-65.6-103.977-147.246-179.863-148.206-66.514-0.457-83.497 43.794-174.514 43.291s-109.714-44.32-177.234-43.291c-74.834 0.96-132.709 74.309-175.543 139.931-121.029 184.251-133.143 400.457-59.794 515.177 53.554 81.669 136.617 129.28 215.771 129.28 79.749 0 130.286-43.794 195.886-43.794 63.771 0 103.543 43.794 195.954 43.794 69.44 0 142.811-37.874 195.84-104.046-172.549-94.309-144.411-341.051 29.714-407.726zM691.863 784.686c33.486 43.291 58.766 103.497 50.011 166.171-55.406-3.84-118.994-38.857-156.411-84-33.989-41.44-62.263-103.086-51.589-162.286 59.84-1.989 122.034 33.943 157.989 80.16z" />
<glyph unicode="&#xe911;" glyph-name="aroba" horiz-adv-x="1097" d="M1060.571 438.857q0-73.989-24.663-131.337t-65.669-89.989c-25.069-20.329-54.091-37.118-85.536-48.96l-2.144-0.708c-28.646-10.787-61.749-17.417-96.284-18.278l-0.379-0.007c-2.651 0-6.103-0.114-10.331-0.343s-7.886-0.343-10.994-0.343q-63.36 0-94.674 35.337-18.651 22.011-21.989 55.337c-23.938-29.829-53.073-54.383-86.194-72.578l-1.486-0.748c-32.764-18.459-71.93-29.334-113.635-29.334-0.711 0-1.421 0.003-2.131 0.009l0.109-0.001q-107.429 0-166.331 63.657t-58.994 179.657q0 104.663 44 193.349t119.314 140.32q75.429 51.657 164.023 51.68 57.989 0 103.314-23.68c29.639-15.32 53.65-37.923 70.236-65.5l0.438-0.786 1.326 12.663 7.246 37.257c0.598 3.073 1.889 5.775 3.708 8.035l-0.028-0.035c1.33 2.224 3.629 3.75 6.299 3.998l0.032 0.002h78.651q3.337 0 8.686-7.337c2.286-2.286 2.88-5.783 1.989-10.674l-80-409.326c-2.119-9.618-3.335-20.666-3.337-31.998v-0.002q0-26.011 8.343-34.674t29.714-8.663c13.901 0.525 26.997 1.835 39.84 3.903l-1.851-0.246q19.337 3.017 48.663 16c19.73 8.72 36.676 19.919 51.426 33.47l-0.134-0.122q22.011 20.343 38.011 59.657t16 91.429q0 194.651-116 310.674t-310.583 115.909c-0.359 0.001-0.783 0.002-1.208 0.002-59.458 0-115.993-12.516-167.114-35.057l2.654 1.044q-78.903-34.011-136.046-90.949t-90.994-136c-21.506-48.861-34.024-105.826-34.024-165.714s12.518-116.853 35.079-168.42l-1.055 2.706q34.057-78.857 90.994-136t136-90.994c48.438-21.469 104.937-33.968 164.356-33.968 0.478 0 0.955 0.001 1.433 0.002h-0.074q152 0 269.989 96c3.843 3.357 8.905 5.404 14.446 5.404 0.547 0 1.089-0.020 1.626-0.059l-0.072 0.004c5.816-0.415 10.845-3.459 13.948-7.939l0.040-0.061 27.429-32.686c2.889-4.010 4.621-9.022 4.621-14.438 0-0.549-0.018-1.095-0.053-1.635l0.004 0.074c-0.9-5.88-3.801-10.96-7.973-14.628l-0.027-0.023c-43.221-35.403-93.491-64.308-148.095-84.192l-3.562-1.134c-51.103-19.011-110.141-30.012-171.75-30.012-0.2 0-0.401 0-0.601 0h0.031c-0.45-0.001-0.982-0.002-1.514-0.002-71.27 0-139.046 14.963-200.356 41.918l3.196-1.253q-94.674 40.663-163.314 109.326t-109.349 163.337c-25.703 58.593-40.662 126.887-40.662 198.674s14.959 140.081 41.929 201.935l-1.267-3.26q40.663 94.629 109.349 163.314t163.314 109.349c58.114 25.702 125.89 40.665 197.16 40.665 0.532 0 1.065-0.001 1.596-0.003h-0.082q229.349 0 370.674-141.326t141.326-370.674zM684.571 519.52q0 72-35.657 112.663t-98.286 40.663c-30.218-0.193-58.643-7.686-83.656-20.8l1.005 0.48c-28.599-14.66-52.888-33.527-73.118-56.107l-0.208-0.236q-32.686-36-53.006-91.429c-12.896-34.735-20.358-74.86-20.358-116.729 0-1.15 0.006-2.299 0.017-3.447l-0.001 0.176q0-74.674 35.68-115.314t100.16-40.571q64 0 117.349 44.32c35.152 29.455 62.924 66.539 80.93 108.785l0.716 1.889c17.853 39.951 28.305 86.567 28.434 135.609v0.048z" />
<glyph unicode="&#xe912;" glyph-name="audio" horiz-adv-x="1097" d="M646.011 426.126h-194.651c-2.821-0.575-5.299-1.364-7.655-2.382l0.249 0.096v-496.549s5.669-0.434 7.406-0.434h194.651c2.057 0 7.177 0.434 7.177 0.434v496.571c-2.071 0.985-4.477 1.77-6.996 2.235l-0.181 0.028zM548.274-26.674c-44.006 0-79.68 35.674-79.68 79.68s35.674 79.68 79.68 79.68c44.006 0 79.68-35.674 79.68-79.68v0c0-44.006-35.674-79.68-79.68-79.68v0zM631.177 169.143h-165.211v224h165.211zM191.863 387.886v-431.703c9.338-1.423 20.135-2.253 31.12-2.286h31.189v436.206h-31.154c-0.026 0-0.058 0-0.089 0-10.959 0-21.731-0.806-32.258-2.362l1.192 0.145zM842.971 390.103v-436.137h31.154c11.010 0.022 21.808 0.852 32.359 2.434l-1.205-0.148v431.634c-9.346 1.434-20.144 2.264-31.131 2.286h-0.023zM1047.017 452.411c0 275.291-223.154 498.446-498.446 498.446s-498.446-223.154-498.446-498.446c0-0.145 0-0.317 0-0.489 0-60.909 10.952-119.259 30.994-173.19l-1.12 3.439c-18.794-31.565-29.904-69.602-29.904-110.234 0-86.501 50.352-161.242 123.345-196.513l1.303-0.568v394.263c-20.452-9.871-38.045-21.874-53.585-36.083l0.168 0.151c-5.654 26.456-8.891 56.852-8.891 88.003 0 0.023 0 0.046 0 0.069v-0.004c0 240.869 195.269 436.137 436.137 436.137s436.137-195.269 436.137-436.137c0-0.070 0-0.152 0-0.234 0-31.093-3.238-61.43-9.394-90.691l0.503 2.857c-15.371 14.063-32.963 26.066-52.114 35.361l-1.303 0.571v-394.263c74.296 35.838 124.647 110.579 124.647 197.080 0 40.632-11.11 78.67-30.458 111.24l0.553-1.006c18.923 50.492 29.875 108.842 29.875 169.751 0 0.172 0 0.344 0 0.515v-0.026z" />
<glyph unicode="&#xe913;" glyph-name="auto-lte" horiz-adv-x="1097" d="M212.091 582.148l-14.88 47.817h-98.926l-15.817-47.817h-82.469l116.869 321.28h60.914l116.869-321.28zM149.349 781.6l-28.869-85.76h55.954zM429.714 579.451c-66.789 0-121.394 45.097-121.394 115.52v208.457h78.88v-206.674c0-29.714 16.251-46.926 42.423-46.926s43.314 17.143 43.314 46.926v206.674h78.971v-208.571c0-70.309-55.497-115.406-122.194-115.406zM736.937 833.051v-250.903h-78.971v250.903h-78.949v70.377h236.983v-70.377zM1045.166 614.628c-22.994-22.994-50.080-35.177-89.349-35.177s-66.286 12.183-89.326 35.177c-32.96 32.96-32.96 74.011-32.96 128.183s0 95.177 32.96 128.137c22.994 23.017 50.080 35.2 89.326 35.2s66.286-12.183 89.349-35.2c32.937-32.96 32.937-74.011 32.937-128.091s0-95.269-32.937-128.229zM987.429 821.76c-5.851 7.68-17.143 13.989-31.589 13.989s-25.714-6.309-31.566-13.989c-7.246-9.486-11.749-20.32-11.749-78.949s4.571-69.074 11.749-78.537c7.696-8.869 18.986-14.445 31.577-14.445s23.881 5.576 31.533 14.393l0.044 0.052c7.223 9.463 11.749 19.863 11.749 78.537s-4.549 69.463-11.749 78.949zM16.937-28.434v491.429h120.777v-383.771h206.377v-107.657zM571.863 355.337v-383.771h-120.8v383.771h-120.777v107.68h362.286v-107.68zM763.040-28.434v491.429h334.103v-107.68h-213.303v-82.149h182.217v-107.657h-182.217v-86.309h213.303v-107.657z" />
<glyph unicode="&#xe914;" glyph-name="bateria" horiz-adv-x="1097" d="M1036.206 591.223c33.649-0.013 60.924-27.288 60.937-60.936v-182.858c-0.013-33.649-27.288-60.924-60.936-60.937h-0.001v-76.206c-0.142-42.025-34.179-76.053-76.193-76.183h-883.806c-0.339-0.006-0.739-0.009-1.141-0.009-20.672 0-39.342 8.576-52.644 22.364l-0.021 0.022c-13.824 13.35-22.408 32.050-22.408 52.754 0 0.37 0.003 0.739 0.008 1.107l-0.001-0.056v457.143c-0.005 0.313-0.008 0.682-0.008 1.052 0 20.704 8.584 39.403 22.386 52.733l0.021 0.020c13.349 13.811 32.039 22.385 52.732 22.385 0.377 0 0.754-0.003 1.13-0.009l-0.057 0.001h883.794c42.027-0.129 76.063-34.158 76.206-76.169v-0.014zM1036.206 347.428v182.857h-60.96v137.143c0.007 0.167 0.011 0.363 0.011 0.559 0 8.117-6.58 14.697-14.697 14.697-0.197 0-0.392-0.004-0.587-0.012l0.028 0.001h-883.794c-0.159 0.006-0.347 0.010-0.535 0.010-8.142 0-14.743-6.601-14.743-14.743 0-0.18 0.003-0.36 0.010-0.538l-0.001 0.026v-457.143c-0.006-0.153-0.009-0.332-0.009-0.513 0-8.142 6.601-14.743 14.743-14.743 0.188 0 0.375 0.004 0.562 0.010l-0.027-0.001h883.794c0.167-0.007 0.363-0.011 0.559-0.011 8.117 0 14.697 6.58 14.697 14.697 0 0.197-0.004 0.392-0.012 0.587l0.001-0.028v137.143zM121.92 256v365.714h609.509v-365.714z" />
<glyph unicode="&#xe915;" glyph-name="blindaje" horiz-adv-x="1097" d="M559.497 180.297v-217.143c0.001-0.075 0.001-0.163 0.001-0.252 0-19.907-16.138-36.046-36.046-36.046-0.057 0-0.113 0-0.17 0h-362.048c-0.048 0-0.104 0-0.16 0-19.907 0-36.046 16.138-36.046 36.046 0 0.056 0 0.113 0 0.169v-0.009 217.143c0 0.048 0 0.104 0 0.16 0 19.907 16.138 36.046 36.046 36.046 0.056 0 0.113 0 0.169 0h12.082v72.503q0 69.371 49.783 119.177t119.154 49.783q69.394 0 119.177-49.783t49.783-119.177v-72.411h12.069c0.048 0 0.104 0 0.16 0 19.907 0 36.046-16.138 36.046-36.046 0-0.056 0-0.113 0-0.169v0.009zM245.737 216.503h193.12v72.411c-0.039 53.307-43.242 96.509-96.545 96.549h-0.004c-53.307-0.026-96.513-43.239-96.526-96.547v-0.001zM690.286 492.023c-0.189 0-0.413 0-0.637 0-57.946 0-113.222 11.428-163.699 32.153l2.873-1.044c-164.731 66.72-249.303 222.011-232.114 426.034l20.023-1.691c-16.411-194.651 63.611-342.537 219.543-405.76 150.857-61.12 331.543-25.463 420.297 82.971l15.543-12.731c-63.314-77.326-170.354-119.909-281.829-119.931zM676.891 589.371c-44.502 0.011-86.526 10.606-123.695 29.406l1.57-0.72c-115.634 57.143-175.223 184.617-155.429 332.8l43.794-5.851c-17.189-128.8 33.097-238.903 131.223-287.337 97.509-48.137 213.463-22.583 302.583 66.72l31.269-31.223c-68.023-68.114-150.217-103.794-231.314-103.794zM685.006 727.771c-0.315-0.002-0.687-0.003-1.060-0.003-23.839 0-46.651 4.394-67.671 12.417l1.302-0.436c-72.411 27.771-104.297 95.223-87.474 185.143l15.794-2.949c-20.891-111.589 39.543-152.594 77.417-167.109 64.754-24.823 148.571-6.674 175.817 38.080l13.714-8.343c-21.691-35.68-73.966-56.8-127.84-56.8z" />
<glyph unicode="&#xe916;" glyph-name="bluetooh" horiz-adv-x="1097" d="M908 647.703q18.286-89.417 18.286-208.846t-18.286-208.846q-18.286-89.44-49.989-146.857t-80.297-92.869c-29.453-22.004-64.091-39.013-101.607-48.945l-2.095-0.472q-55.154-14.011-125.44-14.011t-125.44 14.011c-39.613 10.4-74.251 27.409-104.494 49.982l0.791-0.565q-48.571 35.451-80.297 92.869t-49.989 146.857q-18.286 89.417-18.286 208.846t18.286 208.846q18.286 89.44 49.989 146.88t80.297 92.846c29.454 22.006 64.091 39.021 101.604 48.967l2.098 0.473q55.177 13.989 125.44 13.989t125.44-13.989c39.612-10.425 74.247-27.439 104.497-50.007l-0.794 0.567q48.549-35.451 80.297-92.846t49.989-146.88zM515.429-1.143l265.143 265.143-174.857 174.857 174.857 174.857-265.143 265.143v-349.143l-145.714 145.714-53.143-53.143 182.857-183.429-182.857-183.429 53.143-53.143 145.714 145.714zM589.714 698.286l85.143-85.143-84.571-84.571zM590.286 349.143l84.571-84.571-85.143-85.143z" />
<glyph unicode="&#xe917;" glyph-name="cable-coaxial" horiz-adv-x="1097" d="M705.936 674.817l196.615 159.159 94.716-117.006-196.615-159.159-94.716 117.006zM951.843 800.514l123.526 99.994 21.917-27.075-123.526-99.994-21.917 27.075zM0.698 139.805l667.463 540.308c0.981 0.794 2.42 0.643 3.215-0.338l128.339-158.542c0.794-0.981 0.643-2.42-0.338-3.215l-667.463-540.308c-0.981-0.794-2.42-0.643-3.215 0.338l-128.339 158.542c-0.794 0.981-0.643 2.42 0.338 3.215z" />
<glyph unicode="&#xe918;" glyph-name="camara" horiz-adv-x="1097" d="M950.857 764.983c0.663 0.011 1.446 0.018 2.23 0.018 39.629 0 75.459-16.266 101.177-42.486l0.022-0.023q42.857-42.446 42.857-102.469v-507.291q0-60-42.857-102.469t-103.429-42.469h-804.571q-60.549 0-103.429 42.469t-42.857 102.469v507.291q0 60 42.857 102.469c25.74 26.243 61.57 42.509 101.199 42.509 0.784 0 1.566-0.006 2.347-0.019l-0.118 0.002h128l29.12 76.983q10.857 27.749 39.749 47.84t59.131 20.114h292.571q30.286 0 59.131-20.114t39.726-47.84l29.143-76.983zM367.703 187.177q75.131-74.423 180.891-74.446t180.846 74.446q75.131 74.469 75.131 179.2t-75.154 179.177q-75.086 74.423-180.846 74.469t-180.891-74.469q-75.109-74.4-75.109-179.177t75.131-179.2zM432.297 481.6q48.274 47.84 116.297 47.817t116.297-47.817q48.251-47.863 48.251-115.223t-48.251-115.2q-48.343-48-116.297-47.863t-116.297 47.863q-48.297 47.794-48.297 115.2t48.297 115.223z" />
<glyph unicode="&#xe919;" glyph-name="carro-compra" horiz-adv-x="1097" d="M376.754 316.023c-1.806-30.629-3.474-58.263-5.257-88.343 3.68-0.16 12.754-0.937 21.829-0.937q285.394 0 570.766-0.137c29.029 0 45.943-13.714 48-37.44s-12.069-42.011-36.571-46.309c-4.032-0.54-8.693-0.848-13.427-0.848-0.808 0-1.615 0.009-2.419 0.027l0.12-0.002c14.514-15.154 35.543-28.823 43.703-48s8.48-44.983 2.994-65.417c-9.92-36.8-48.571-58.331-85.989-54.651-37.085 4.012-66.674 31.746-73.449 67.548l-0.082 0.521c-7.52 43.429 9.966 74.080 58.994 98.286h-535.314c12.663-13.966 33.371-28.457 41.44-48.114 7.84-19.131 7.726-44.937 2.286-65.394-9.509-34.971-48-55.977-84.869-52.846-34.697 2.971-66.606 30.446-74.72 64.389q-14.789 61.234 54.926 101.669c-10.606 2.286-21.897 3.2-31.726 7.451-20.434 8.8-27.566 25.76-23.703 47.269 0.719 5.536 2.658 10.51 5.541 14.797l-0.078-0.123c38.194 49.051 27.429 101.554 14.88 156.183-32.869 144-63.634 288.274-93.829 432.754-3.794 18.126-10.423 22.629-27.429 22.149-35.909-1.051-71.886-0.594-107.817-0.206-28.183 0.274-44.8 15.154-45.554 39.634s14.811 42.583 42.514 43.269c55.2 1.394 110.469 1.097 165.691 0.251 30.011-0.48 43.886-20.571 45.989-47.657 2.286-30.857 16.434-37.897 46.789-37.714 244.571 1.509 489.143 0.869 733.851 0.823 51.429 0 62.217-10.583 62.24-60.96q0-151.223 0-302.469c0-45.92-11.040-56.16-55.771-61.097-113.897-12.663-227.589-26.583-341.509-39.886q-144.686-16.891-289.394-33.6c-12.914-1.509-25.737-3.726-33.646-4.869z" />
<glyph unicode="&#xe91a;" glyph-name="cdc" horiz-adv-x="1097" d="M598.194 104.388h54.377v-32.617q0-13.714-16-23.131c-10.44-6-22.955-9.539-36.297-9.539-0.74 0-1.477 0.011-2.211 0.032l0.108-0.003h-543.794c-0.62-0.019-1.35-0.029-2.082-0.029-13.341 0-25.855 3.539-36.656 9.728l0.361-0.19q-16 9.531-16 23.131v32.617h598.194zM141.394 126.148c-30.006 0.104-54.299 24.413-54.377 54.415v239.23c0.078 30 24.377 54.299 54.37 54.377h369.79c30.010-0.065 54.322-24.369 54.4-54.37v-239.231c-0.104-29.998-24.4-54.287-54.391-54.377h-0.009zM130.514 419.794v-239.223c0.076-5.978 4.902-10.804 10.873-10.88h369.79c5.978 0.076 10.804 4.902 10.88 10.873v239.23c-0.076 5.978-4.902 10.804-10.873 10.88h-369.79c-5.978-0.076-10.804-4.902-10.88-10.873v-0.007zM353.486 71.771c0.105-0.007 0.228-0.011 0.352-0.011 3.004 0 5.44 2.436 5.44 5.44s-2.436 5.44-5.44 5.44c-0.124 0-0.247-0.004-0.369-0.012l0.017 0.001h-54.4c-2.849-0.191-5.088-2.548-5.088-5.429s2.239-5.238 5.071-5.428l0.017-0.001zM913.12 838.583v-229.12h-95.703v229.12zM974.446 838.583v-229.12h-48.571v229.12zM1035.817 838.583v-229.12h-48.594v229.12zM1097.143 838.583v-229.12h-48.64v229.12zM767.863 702.56l-109.623-18.766 21.851-24.891-122.4-107.109 31.017-35.383 122.354 107.086 18.149-20.8 38.651 99.863zM596.594 415.908l109.623 18.743-21.806 24.891 122.377 107.109-31.040 35.383-122.354-107.086-18.149 20.8-38.651-99.84z" />
<glyph unicode="&#xe91b;" glyph-name="cei" horiz-adv-x="1097" d="M405.28 528.366c-15.615-15.979-34.12-29.055-54.682-38.396l-1.135-0.462q-29.851-12.96-73.371-12.96-77.714 0-129.486 52.571-30.674 30.606-39.017 69.737t-8.32 99.223v31.291q0 60.206 8.32 99.383t39.017 69.943c16.003 16.362 35.123 29.599 56.409 38.762l1.145 0.438q31.269 12.96 71.931 12.96 43.429 0 73.691-13.12c21.573-9.661 39.975-22.597 55.469-38.394l0.028-0.029-76.137-76.16c-6.844 7.56-14.693 14.034-23.376 19.261l-0.464 0.259c-7.36 4.046-17.097 6.080-29.28 6.080q-29.12 0-44.48-19.497c-4.101-5.262-7.439-11.373-9.698-17.984l-0.13-0.439q-3.657-10.743-5.737-32.663t-2.080-64.48q0-56.64 4.16-79.566t13.44-35.657q15.36-19.863 44.48-19.863 18.286 0 28.96 6.080c9.197 5.672 17.143 12.127 24.162 19.474l0.043 0.046zM789.989 480.343h-317.189v466.674h317.189v-102.103h-202.56v-78.080h173.143v-102.103h-173.143v-82.286h202.583zM985.897 480.343h-114.583v466.674h114.583zM129.417-72.457v466.629h70.857v-466.629zM303.771-72.457v466.629h298.194v-63.589h-227.429v-136.297h194.011v-62.926h-194.011v-140.251h227.429v-63.566zM831.406-73.143c-48.48 0-90.423 17.691-122.537 49.806-45.874 45.874-45.234 97.646-45.234 187.429s-0.64 141.577 45.234 187.429c32.114 32 74.057 49.806 122.537 49.806 85.874 0 150.103-50.469 166.469-143.52h-72.16c-11.154 47.177-42.629 80-94.4 80-27.429 0-52.411-10.469-68.8-28.16-22.857-24.891-28.183-51.771-28.183-145.509s5.234-120.571 28.183-145.486c16.389-17.691 41.303-28.183 68.8-28.183 51.771 0 83.909 32.754 95.040 80h71.429c-15.634-93.166-81.829-143.611-166.377-143.611z" />
<glyph unicode="&#xe91c;" glyph-name="check" horiz-adv-x="1097" d="M1054.949 950.857l23.657-41.006q-230.606-162.926-427.566-412.617t-284.457-489.143l-34.674-22.857c-28.977-18.688-54.141-37.909-77.682-58.91l0.608 0.533c-3.771 18.971-13.966 49.463-30.88 91.429l-18.080 44.8c-39.269 97.12-72.64 165.051-99.589 203.68s-56.366 59.429-87.749 62.537q63.611 58.4 110.926 58.331c43.429 0 91.429-58.423 143.291-175.68l28.434-62.926c98.623 174.667 210.221 325.529 337.829 461.156l-1.12-1.202q197.417 210.24 417.051 341.874z" />
<glyph unicode="&#xe91d;" glyph-name="circuitos-impresos" horiz-adv-x="1097" d="M163.611 950.857h444.777c4.027 0 7.291-3.264 7.291-7.291v-186.629c0-4.027-3.264-7.291-7.291-7.291h-444.777c-4.027 0-7.291 3.264-7.291 7.291v186.629c0 4.027 3.264 7.291 7.291 7.291zM167.909 633.554h444.777c4.027 0 7.291-3.264 7.291-7.291v-186.629c0-4.027-3.264-7.291-7.291-7.291h-444.777c-4.027 0-7.291 3.264-7.291 7.291v186.629c0 4.027 3.264 7.291 7.291 7.291zM163.611 297.668h444.777c4.027 0 7.291-3.264 7.291-7.291v-186.629c0-4.027-3.264-7.291-7.291-7.291h-444.777c-4.027 0-7.291 3.264-7.291 7.291v186.629c0 4.027 3.264 7.291 7.291 7.291zM901.577 244.16c-19.302 0-34.949 15.647-34.949 34.949v0 536.206h-311.886c-0.266-0.007-0.579-0.011-0.894-0.011-19.302 0-34.949 15.647-34.949 34.949s15.647 34.949 34.949 34.949c0.314 0 0.628-0.004 0.94-0.012l-0.046 0.001h346.834c19.286 0 34.923-15.621 34.949-34.9v-571.179c0-19.302-15.647-34.949-34.949-34.949v0zM905.874-73.143c-0.020 0-0.044 0-0.069 0-19.302 0-34.949 15.647-34.949 34.949 0 0 0 0 0 0v0 536.206h-311.817c-0.266-0.007-0.579-0.011-0.894-0.011-19.302 0-34.949 15.647-34.949 34.949s15.647 34.949 34.949 34.949c0.314 0 0.628-0.004 0.94-0.012l-0.046 0.001h346.834c19.294 0 34.936-15.634 34.949-34.924v-571.155c0-19.302-15.647-34.949-34.949-34.949v0zM901.577-73.143c-19.302 0-34.949 15.647-34.949 34.949v0 200.32h-311.886c-19.302 0-34.949 15.647-34.949 34.949s15.647 34.949 34.949 34.949h346.834c19.296-0.013 34.936-15.652 34.949-34.947v-235.27c0-19.302-15.647-34.949-34.949-34.949v0z" />
<glyph unicode="&#xe91e;" glyph-name="class-2" horiz-adv-x="1097" d="M1060.571-73.143h-1024v1024h1024zM67.84-41.874h961.463v961.463h-961.463zM842.994 144.434h-588.846v588.846h588.846zM285.417 175.703h526.331v526.309h-526.331z" />
<glyph unicode="&#xe91f;" glyph-name="class-a+" horiz-adv-x="1097" d="M585.897 363.428h-145.486l-26.446 84.571h-174.651l-27.634-84.571h-145.874l206.194 567.269h107.749zM377.394 564.16l-47.84 151.314-50.971-151.314zM989.714 527.703h-121.006v-120.983h-122.537v120.983h-121.394v122.537h121.394v121.349h122.537v-121.349h121.006zM178.514-22.72c-9.112-9.332-19.91-16.969-31.909-22.427l-0.662-0.27c-11.611-5.029-25.897-7.566-42.766-7.566q-45.394 0-75.566 30.606c-11.104 10.725-19.129 24.57-22.662 40.122l-0.103 0.541q-4.846 22.857-4.846 57.943v18.286q0 35.109 4.846 57.966c3.626 16.157 11.689 30.055 22.831 40.775l0.026 0.025c9.337 9.54 20.492 17.258 32.909 22.601l0.668 0.256c11.83 4.8 25.553 7.585 39.926 7.585 0.725 0 1.449-0.007 2.171-0.021l-0.108 0.002c16.869 0 31.2-2.583 42.994-7.657 12.568-5.654 23.29-13.201 32.327-22.407l0.016-0.016-44.503-44.366c-4.010 4.407-8.59 8.194-13.647 11.274l-0.273 0.154c-4.538 2.271-9.887 3.601-15.546 3.601-0.554 0-1.104-0.013-1.652-0.038l0.078 0.003c-11.429 0-19.977-3.817-25.943-11.429-2.382-3.069-4.323-6.633-5.638-10.485l-0.076-0.257c-1.657-5.565-2.843-12.056-3.32-18.744l-0.017-0.296q-1.234-12.823-1.234-37.646 0-33.051 2.446-46.377c1.111-7.866 3.884-14.918 7.956-21.030l-0.116 0.185q8.937-11.566 25.943-11.566c0.492-0.025 1.068-0.039 1.647-0.039 5.571 0 10.832 1.323 15.487 3.672l-0.197-0.090c5.35 3.34 9.977 7.117 14.078 11.402l0.025 0.026zM399.040-50.743h-181.12v272.229h66.857v-212.571h114.286zM660.251-50.743h-69.851l-12.709 40.526h-83.84l-13.234-40.526h-70.011l98.971 272.229h51.703zM560.183 45.6l-23.040 72.64-24.434-72.64zM870.491 32.548c0.017-0.599 0.026-1.303 0.026-2.010 0-16.596-5.294-31.956-14.285-44.482l0.156 0.229c-9.687-12.95-22.578-23.004-37.514-29.069l-0.588-0.211c-15.196-6.325-32.849-9.998-51.36-9.998-0.571 0-1.14 0.003-1.709 0.010l0.086-0.001q-33.806 0-58.811 8.023c-17.501 5.813-32.419 15.374-44.404 27.785l-0.030 0.032 42.926 42.949c7.191-6.879 16.139-11.979 26.101-14.561l0.413-0.091c10.14-2.903 21.786-4.572 33.822-4.572 0.163 0 0.326 0 0.488 0.001h-0.025q39.017 0 39.017 24.457c0 6.971-1.806 12.343-5.371 16s-9.6 6.149-17.989 7.269l-32.869 4.571q-36.206 5.006-54.697 24.091t-18.674 54.674c-0.006 0.384-0.010 0.837-0.010 1.291 0 15.934 4.494 30.819 12.284 43.455l-0.205-0.358c8.416 13.228 20.157 23.663 34.066 30.28l0.494 0.212q22.469 11.040 52.754 11.040c0.91 0.018 1.984 0.029 3.059 0.029 17.693 0 34.722-2.845 50.653-8.104l-1.141 0.326c15.447-5.364 28.627-13.839 39.346-24.74l0.014-0.014-42.126-41.806c-5.979 6.283-13.636 10.917-22.253 13.183l-0.33 0.074c-8.173 1.783-17.562 2.804-27.189 2.804-0.719 0-1.437-0.006-2.153-0.017l0.108 0.001q-16 0-24.434-7.657c-5.060-4.224-8.28-10.505-8.366-17.54v-0.015c0-0.032 0-0.070 0-0.109 0-4.949 2.058-9.417 5.366-12.594l0.006-0.006c4.206-4.229 10.446-6.857 18.651-8l32.869-4.571q35.886-5.211 53.623-22.606c6.963-6.703 12.262-15.086 15.246-24.499l0.114-0.415c3.085-9.818 4.862-21.107 4.862-32.812 0-0.679-0.006-1.357-0.018-2.033l0.001 0.102zM1097.143 32.548c0.017-0.599 0.026-1.303 0.026-2.010 0-16.596-5.294-31.956-14.285-44.482l0.156 0.229c-9.635-13.019-22.521-23.119-37.474-29.185l-0.583-0.209c-15.107-6.256-32.651-9.888-51.043-9.888-0.682 0-1.363 0.005-2.043 0.015l0.103-0.001q-33.806 0-58.811 8.023c-17.503 5.808-32.422 15.369-44.403 27.785l-0.031 0.032 42.926 42.949c7.182-6.906 16.145-12.013 26.13-14.563l0.407-0.088c10.119-2.903 21.741-4.572 33.753-4.572 0.131 0 0.262 0 0.393 0.001h-0.020q39.086 0 39.063 24.457c0 6.971-1.851 12.343-5.44 16s-9.577 6.149-17.897 7.269l-32.869 4.571q-36.229 5.006-54.72 24.091t-18.651 54.674c-0.008 0.421-0.012 0.917-0.012 1.414 0 15.885 4.469 30.726 12.218 43.335l-0.206-0.36c8.416 13.228 20.157 23.663 34.066 30.28l0.494 0.212q22.514 11.040 52.754 11.040c0.875 0.017 1.907 0.027 2.941 0.027 17.734 0 34.803-2.844 50.777-8.102l-1.147 0.327c15.424-5.364 28.581-13.839 39.276-24.738l0.015-0.016-41.966-41.806c-5.982 6.278-13.638 10.911-22.252 13.183l-0.331 0.074c-8.144 1.783-17.499 2.804-27.092 2.804-0.713 0-1.425-0.006-2.135-0.017l0.107 0.001c-10.697 0-18.903-2.56-24.503-7.657-5.049-4.235-8.27-10.507-8.388-17.534v-0.020c0-0.027 0-0.060 0-0.093 0-4.967 2.087-9.446 5.432-12.608l0.008-0.008c4.229-4.229 10.469-6.857 18.651-8l32.891-4.571c23.863-3.474 41.76-11.017 53.554-22.606 6.96-6.718 12.274-15.094 15.311-24.494l0.117-0.421c3.017-9.718 4.754-20.891 4.754-32.47 0-0.799-0.008-1.597-0.025-2.392l0.002 0.119z" />
<glyph unicode="&#xe920;" glyph-name="cobre" horiz-adv-x="1097" d="M507.886 418.857c-19.651-20.151-42.956-36.629-68.861-48.382l-1.425-0.578q-37.6-16.32-92.457-16.343-97.806 0-163.040 66.126-38.606 38.674-49.051 87.749t-10.469 124.937v39.634q0 75.749 10.469 125.143t49.12 88.023c20.151 20.598 44.22 37.267 71.015 48.818l1.443 0.553q39.474 16.32 90.514 16.32 54.857 0 92.823-16.526c27.173-12.172 50.355-28.453 69.888-48.333l0.032-0.033-96-96c-8.613 9.534-18.467 17.715-29.363 24.357l-0.58 0.328c-9.28 5.074-21.577 7.657-36.914 7.657q-36.571 0-56-24.594c-5.153-6.615-9.333-14.307-12.137-22.63l-0.16-0.547q-4.571-13.509-7.246-41.143t-2.629-81.189q0-71.36 5.234-100.16t16.937-44.937q19.36-25.143 56-25.006c15.337 0 27.429 2.56 36.571 7.68 11.542 7.098 21.509 15.203 30.296 24.441l0.059 0.062zM960 358.4h-132.114v36.274c-13.258-13.106-29.267-23.462-47.079-30.121l-0.921-0.302c-16.352-6.603-35.305-10.514-55.149-10.697l-0.074-0.001q-61.234 0-99.931 37.897-25.874 25.806-35.017 56.229t-9.143 70.72v284.16h135.406v-266.011q0-33.463 17.531-47.131t36.869-13.714c14.063 0.204 26.906 5.261 36.97 13.567l-0.101-0.081q17.554 13.463 17.554 47.36v266.011h135.2zM209.166-70.857h-64.983v167.2l-60.183-52.251v69.28l60.183 52.411h64.983zM451.566 14.697c0.009-0.477 0.014-1.039 0.014-1.603 0-13.084-2.704-25.536-7.583-36.828l0.232 0.602c-4.729-10.933-11.515-20.166-19.938-27.584l-0.085-0.073c-8.236-7.109-17.951-12.773-28.593-16.454l-0.619-0.186c-10.151-3.621-21.861-5.714-34.060-5.714-0.031 0-0.062 0-0.093 0h0.005c-0.174-0.001-0.381-0.002-0.587-0.002-16.039 0-31.21 3.721-44.695 10.347l0.597-0.265c-13.953 6.749-25.317 16.961-33.269 29.545l-0.194 0.329q-12.617 19.84-12.594 47.886v65.303c-0.013 0.562-0.020 1.223-0.020 1.886 0 12.99 2.75 25.338 7.699 36.494l-0.227-0.574c4.878 10.844 11.639 20.028 19.95 27.524l0.072 0.064c8.093 7.225 17.683 12.972 28.226 16.707l0.597 0.184c10.292 3.617 22.159 5.707 34.514 5.707s24.222-2.090 35.267-5.935l-0.753 0.228c11.162-3.927 20.778-9.648 29.009-16.905l-0.095 0.082c8.42-7.505 15.165-16.697 19.734-27.063l0.198-0.503c4.62-10.669 7.308-23.094 7.308-36.147 0-0.615-0.006-1.229-0.018-1.842l0.001 0.092zM386.583 14.308v65.691q0 14.491-7.36 21.943c-4.506 4.604-10.784 7.458-17.728 7.458-0.196 0-0.392-0.002-0.587-0.007l0.029 0.001c-0.16 0.004-0.349 0.006-0.538 0.006-6.985 0-13.285-2.931-17.738-7.629l-0.010-0.011q-7.36-7.657-7.36-21.76v-65.783q0-13.714 7.36-21.28c4.485-4.657 10.775-7.549 17.739-7.549 0.192 0 0.384 0.002 0.575 0.007l-0.028-0.001c0.181-0.005 0.394-0.007 0.608-0.007 6.912 0 13.166 2.817 17.676 7.366l0.002 0.002q7.337 7.429 7.36 21.554zM672 14.697c0.009-0.471 0.013-1.027 0.013-1.584 0-13.088-2.695-25.547-7.56-36.851l0.232 0.606c-4.729-10.933-11.515-20.166-19.938-27.584l-0.085-0.073c-8.24-7.099-17.954-12.761-28.59-16.452l-0.622-0.188c-10.156-3.621-21.871-5.714-34.076-5.714-0.026 0-0.051 0-0.077 0h0.004c-0.174-0.001-0.381-0.002-0.587-0.002-16.039 0-31.21 3.721-44.695 10.347l0.597-0.265c-13.962 6.735-25.33 16.951-33.269 29.545l-0.194 0.329q-12.617 19.84-12.617 47.886v65.303c-0.012 0.547-0.019 1.191-0.019 1.836 0 13.009 2.758 25.375 7.721 36.543l-0.228-0.574c4.878 10.844 11.639 20.028 19.95 27.524l0.072 0.064c8.085 7.233 17.667 12.988 28.204 16.73l0.596 0.185c10.302 3.622 22.181 5.715 34.549 5.715s24.246-2.093 35.302-5.943l-0.753 0.228c11.155-3.92 20.765-9.643 28.984-16.903l-0.093 0.081c8.428-7.505 15.18-16.696 19.756-27.063l0.198-0.503c4.579-10.628 7.243-23.002 7.243-35.997 0-0.676-0.007-1.351-0.022-2.024l0.002 0.1zM607.040 14.308v65.691q0 14.491-7.36 21.943c-4.506 4.604-10.784 7.458-17.728 7.458-0.196 0-0.392-0.002-0.587-0.007l0.029 0.001c-0.169 0.004-0.367 0.007-0.567 0.007-6.976 0-13.267-2.931-17.708-7.629l-0.011-0.012q-7.68-7.566-7.68-21.76v-65.783q0-13.714 7.36-21.28c4.475-4.657 10.755-7.55 17.711-7.55 0.202 0 0.404 0.002 0.605 0.007l-0.030-0.001c0.181-0.005 0.394-0.007 0.608-0.007 6.912 0 13.166 2.817 17.676 7.366l0.002 0.002q7.543 7.429 7.566 21.554zM828.983 120.914c0.018-0.517 0.028-1.125 0.028-1.735 0-10.65-3.076-20.581-8.387-28.954l0.131 0.221c-5.349-8.152-12.826-14.511-21.648-18.368l-0.318-0.124c-8.772-3.793-18.985-5.999-29.714-5.999s-20.943 2.206-30.212 6.189l0.498-0.19c-9.132 3.993-16.605 10.35-21.85 18.305l-0.115 0.186c-5.153 8.151-8.211 18.072-8.211 28.707 0 0.619 0.010 1.236 0.031 1.851l-0.002-0.089v37.714c-0.018 0.525-0.029 1.142-0.029 1.761 0 10.635 3.058 20.556 8.343 28.931l-0.132-0.224c5.354 8.141 12.83 14.492 21.647 18.345l0.318 0.124c8.769 3.807 18.983 6.022 29.714 6.022s20.945-2.215 30.209-6.212l-0.495 0.19c9.143-3.963 16.623-10.318 21.851-18.282l0.115-0.186c5.181-8.152 8.256-18.084 8.256-28.733 0-0.61-0.010-1.218-0.030-1.823l0.002 0.088zM782.926 122.446v34.629q0 15.291-13.92 15.291t-13.714-15.291v-34.629q0-15.269 13.714-15.269t13.92 15.269zM953.371 211.246l-134.423-282.103h-49.943l134.446 282.057zM1013.143-18.286c0.019-0.54 0.030-1.174 0.030-1.81 0-10.58-3.033-20.451-8.277-28.792l0.132 0.225c-5.35-8.112-12.788-14.455-21.556-18.343l-0.318-0.126c-8.566-3.858-18.569-6.105-29.097-6.105-0.217 0-0.434 0.001-0.65 0.003h0.033c-0.186-0.002-0.406-0.003-0.627-0.003-10.516 0-20.515 2.213-29.557 6.199l0.47-0.185c-9.147 3.969-16.632 10.322-21.874 18.283l-0.115 0.186c-5.18 8.169-8.255 18.117-8.255 28.783 0 0.593 0.009 1.183 0.028 1.771l-0.002-0.086v37.829c-0.018 0.53-0.029 1.153-0.029 1.779 0 10.696 3.075 20.674 8.39 29.098l-0.133-0.225c5.357 8.146 12.842 14.499 21.67 18.345l0.318 0.124c8.572 3.801 18.571 6.014 29.088 6.014 0.22 0 0.441-0.001 0.661-0.003h-0.034c0.183 0.002 0.4 0.003 0.617 0.003 10.528 0 20.531-2.248 29.556-6.289l-0.459 0.184c9.095-3.998 16.537-10.345 21.759-18.282l0.115-0.187c5.114-8.145 8.148-18.046 8.148-28.656 0-0.669-0.012-1.336-0.036-2l0.003 0.096zM967.109-16.549v34.537q0 15.497-13.714 15.474t-13.966-15.474v-34.446c0-10.286 4.571-15.474 13.92-15.474s13.76 5.189 13.76 15.474z" />
<glyph unicode="&#xe921;" glyph-name="codigo-barras" horiz-adv-x="1097" d="M38.56 7.84h-38.56v862.034h38.56zM77.143 8.434h-19.589v861.44h19.589zM134.697 8.434h-18.971v861.44h18.971zM230.811 8.434h-18.971v861.44h19.017zM326.926 8.434h-37.966v861.44h37.897zM404.091 8.434h-18.994v861.44h18.994zM442.651 8.434h-18.971v861.44h18.971zM481.211 8.434h-18.971v861.44h18.971zM577.326 8.434h-38.56v861.44h38.56zM673.463 8.434h-38.56v861.44h38.56zM750.606 8.434h-38.56v861.44h38.56zM827.749 8.434h-38.583v861.44h38.583zM885.303 8.434h-38.56v861.44h38.56zM1001.006 8.434h-57.554v861.44h57.554zM1039.589 8.434h-19.611v861.44h19.611zM1097.143 7.84h-38.56v862.034h38.56z" />
<glyph unicode="&#xe922;" glyph-name="cofiguracion" horiz-adv-x="1097" d="M1060.571 511.52v-148.091c-0.083-5.817-2.082-11.152-5.392-15.419l0.044 0.059c-3.044-4.49-7.743-7.661-13.203-8.644l-0.123-0.018-123.429-18.651c-8.144-23.775-16.924-43.812-27.115-62.984l1.126 2.322q23.314-33.349 71.314-92c4.001-4.408 6.505-10.239 6.674-16.652l0.001-0.034c0-0.028 0-0.061 0-0.094 0-5.899-2.287-11.264-6.023-15.256l0.012 0.013q-17.966-24.617-65.989-71.977t-62.651-47.337c-6.541 0.326-12.509 2.53-17.446 6.078l0.097-0.067-91.909 72.091c-17.043-9.161-37.111-17.74-57.972-24.564l-2.691-0.762q-10.697-90.651-19.337-124-4.571-18.651-24-18.674h-148c-0.115-0.002-0.25-0.003-0.385-0.003-6.068 0-11.634 2.15-15.978 5.729l0.043-0.034c-4.382 3.361-7.287 8.46-7.677 14.249l-0.003 0.060-18.56 122.674c-23.46 7.589-43.307 15.942-62.289 25.737l2.289-1.074-94.103-71.337c-4.212-3.739-9.79-6.024-15.901-6.024-0.268 0-0.535 0.004-0.8 0.013l0.039-0.001c-6.582 0.051-12.501 2.849-16.674 7.302l-0.012 0.013q-84 76.046-109.989 112c-2.865 4.137-4.577 9.261-4.577 14.786 0 0.194 0.002 0.387 0.006 0.58v-0.029c0.046 5.808 2.016 11.147 5.302 15.42l-0.045-0.060q9.966 14.011 34.011 44.343t35.977 47.086c-10.618 18.857-19.946 40.734-26.83 63.668l-0.598 2.321-122.011 18.011c-5.771 0.819-10.7 3.893-13.948 8.286l-0.040 0.057c-3.265 4.2-5.235 9.549-5.235 15.357 0 0.073 0 0.146 0.001 0.22v-0.011 147.977c0.083 5.817 2.082 11.152 5.392 15.419l-0.044-0.059c2.873 4.374 7.315 7.516 12.508 8.639l0.132 0.024 124.023 18.651c7.356 23.574 16.174 43.885 26.845 63.021l-0.856-1.672q-26.674 38.034-71.337 91.977c-3.902 4.214-6.382 9.794-6.65 15.947l-0.002 0.053q0 6.651 5.966 15.337 17.394 23.977 65.691 71.68t62.994 47.657c6.64-0.226 12.662-2.702 17.367-6.686l-0.041 0.034 92-71.337c17.047 9.167 37.114 17.746 57.978 24.566l2.685 0.76q10.674 90.697 19.337 124 4.571 18.651 24 18.674h148c0.123 0.002 0.267 0.003 0.413 0.003 6.056 0 11.611-2.141 15.951-5.707l-0.044 0.035c4.372-3.379 7.272-8.48 7.677-14.269l0.003-0.062 18.583-122.674c23.444-7.57 43.292-15.923 62.268-25.729l-2.268 1.066 94.743 71.337c3.874 3.735 9.152 6.036 14.968 6.036 0.363 0 0.724-0.009 1.082-0.027l-0.050 0.002c6.448-0.161 12.281-2.667 16.707-6.693l-0.021 0.019q86.011-79.337 110.011-113.326c2.875-3.645 4.611-8.305 4.611-13.37 0-0.459-0.014-0.914-0.042-1.366l0.003 0.062c-0.080-5.81-2.080-11.138-5.392-15.395l0.043 0.058q-10.011-14.034-34.011-44.343t-35.886-47.086c9.961-18.386 19.251-39.994 26.619-62.474l0.809-2.852 122.011-18.674c5.771-0.819 10.7-3.893 13.948-8.286l0.040-0.057c3.265-4.2 5.235-9.549 5.235-15.357 0-0.073 0-0.146-0.001-0.22v0.011zM669.211 318.171q50.034 50.034 50.034 120.709t-50.034 120.663q-49.966 49.989-120.64 49.989t-120.686-49.989q-49.989-50.011-49.989-120.686t49.989-120.686q50.011-49.943 120.663-49.989t120.663 49.989z" />
<glyph unicode="&#xe923;" glyph-name="color" horiz-adv-x="1097" d="M264.206 614.491l100.229 100.571c0-34.080 0.183-63.794-0.297-93.509 0-3.36-3.611-6.743-5.783-9.874-24.434-34.674-25.577-78.697-2.903-113.851 22.057-34.423 62.309-51.36 103.657-43.771 40.445 7.83 71.784 39.308 79.309 79.199l0.097 0.618c1.136 5.686 1.786 12.223 1.786 18.911 0 21.4-6.653 41.245-18.004 57.581l0.218-0.332c-4.043 6.041-6.561 13.407-6.855 21.342l-0.002 0.075q-0.686 108.731-0.16 217.44c0 5.28 1.829 14.514 4.366 15.040 6.034 1.349 13.257-0.526 19.474-2.72 3.84-1.371 6.857-5.44 9.989-8.594q199.817-199.68 399.589-399.52c8.526-8.571 21.074-17.28 15.451-30.994s-20.571-11.657-32.617-11.131c-10.4 0.411-17.211-3.657-24.251-10.766q-230.857-231.451-462.24-462.469c-21.966-21.966-31.063-22.080-52.777-0.434l-377.44 377.486c-20.183 20.183-20.069 30.24 0.411 50.766q93.12 93.12 186.331 186.034c6.316 5.739 10.265 13.985 10.265 23.154 0 0.442-0.009 0.882-0.027 1.32l0.002-0.063q-0.549 124.251-0.114 248.526c0.297 63.337 36.434 111.749 94.377 127.657 78.446 21.531 157.989-37.646 158.857-119.177 0.777-73.417 0.297-146.926 0-220.343 0-9.829 1.646-17.051 9.714-24.32 20.869-18.88 20.754-51.543 1.234-71.429-9.19-9.455-22.028-15.321-36.237-15.321-13.835 0-26.371 5.562-35.494 14.572l0.005-0.005c-20.823 20.571-21.463 52.891 0.251 72.366 8.091 7.269 9.943 14.309 9.943 24.137-0.297 70.469 0 141.006-0.251 211.52-0.297 57.143-49.28 94.857-100.229 76.869-28.937-10.24-48.571-31.36-49.349-62.057-1.829-73.371-0.594-146.88-0.594-224.503zM969.6-19.337c-84.96 0.663-145.371 81.783-118.857 161.943 22.080 66.4 60.891 124.274 99.84 181.6 4.433 6.414 11.748 10.563 20.031 10.563 8.505 0 15.989-4.374 20.324-10.996l0.057-0.093c39.177-57.806 78.217-116.091 100.114-183.086 25.966-79.451-36.571-160.571-121.6-160z" />
<glyph unicode="&#xe924;" glyph-name="colores-ral" horiz-adv-x="1097" d="M261.074 335.108h-43.429v120.137c7.291 1.943 21.463 3.429 41.989 3.429 44.914 0 75.703-18.606 75.703-61.051-0.023-37.623-28.869-62.514-74.263-62.514zM569.349 391.748c-7.383 21.509-12.229 41.143-17.097 60.069h-1.006c-4.891-19.040-9.737-39.566-16.594-59.566l-32.229-95.223h99.589zM569.349 391.748c-7.383 21.509-12.229 41.143-17.097 60.069h-1.006c-4.891-19.040-9.737-39.566-16.594-59.566l-32.229-95.223h99.589zM0 558.766v-465.303h1095.954v465.303zM345.577 160.297c-5.417 9.76-12.731 37.6-21.509 78.606-9.76 45.417-27.84 62.491-66.286 64h-40.16v-142.583h-42.514v324.686c24.501 4.333 52.725 6.826 81.526 6.857h0.029c45.417 0 75.223-8.8 95.223-26.857 16-14.651 25.874-37.12 25.874-63.017 0-42.971-27.429-71.749-61.509-83.497v-1.463c24.914-8.777 40.046-32.206 47.84-66.286 10.743-45.897 18.583-77.714 25.394-90.354zM645.509 160.297l-35.223 103.543h-116.571l-34.286-103.543h-43.931l112.343 329.143h50.743l112.343-329.143zM922.537 160.297h-183.611v329.143h42.971v-293.486h140.64zM552.251 451.817h-1.006c-4.891-19.040-9.737-39.566-16.594-59.566l-32.229-95.223h99.589l-32.663 94.72c-7.383 21.509-12.229 41.029-17.097 60.069zM1097.143 92.434h-1096.64v467.291h1096.64zM2.789 94.72h1092.069v462.72h-1092.069zM170.331 609.783c-8.183-4.229-25.326-8.434-46.949-8.434-50.171 0-87.634 31.68-87.634 90.24 0 55.954 37.737 93.44 92.891 93.44 21.897 0 36.16-4.754 42.217-7.931l-5.806-18.743c-9.935 4.66-21.574 7.379-33.849 7.379-0.62 0-1.238-0.007-1.854-0.021l0.092 0.002c-41.691 0-69.417-26.629-69.417-73.349 0-43.817 25.143-71.497 68.091-71.497 14.263 0 28.503 2.88 37.737 7.383zM345.897 695.040c0-60.96-37.189-93.714-82.606-93.714-47.223 0-80 36.571-80 90.514 0 56.48 34.834 93.417 82.286 93.417 48.914 0.023 80.32-37.189 80.32-90.217zM207.634 692.388c0-38.263 20.571-72.297 56.983-72.297s57.006 33.509 57.006 73.897c0 35.611-18.469 72.549-56.731 72.549s-57.257-35.36-57.257-74.149zM375.543 782.126h23.223v-158.606h76v-19.269h-99.223zM642.149 695.040c0-60.96-37.211-93.714-82.606-93.714-47.223 0-80 36.571-80 90.514 0 56.48 34.834 93.417 82.286 93.417 48.914 0.023 80.32-37.189 80.32-90.217zM503.863 692.388c0-38.263 20.571-72.297 57.006-72.297s57.006 33.509 57.006 73.897c0 35.611-18.469 72.549-56.754 72.549s-57.257-35.36-57.257-74.149zM672 779.726c13.243 2.347 28.495 3.693 44.059 3.703h0.009c24.549 0 40.663-4.754 51.474-14.491 8.638-8.307 14.004-19.962 14.004-32.87 0-0.418-0.006-0.834-0.017-1.249l0.001 0.061c0-23.246-14.789-38.857-33.257-45.143v-0.777c13.463-4.754 21.646-17.417 25.851-35.886 5.806-24.8 10.034-41.966 13.714-48.823h-23.68c-2.926 5.28-6.857 20.32-11.611 42.469-5.28 24.549-15.040 33.783-35.886 34.583h-21.646v-77.051h-23.017zM694.971 698.72h23.497c24.526 0 40.114 13.463 40.114 33.783 0 22.857-16.64 32.983-40.914 32.983-0.954 0.032-2.075 0.051-3.2 0.051-6.898 0-13.635-0.693-20.144-2.012l0.648 0.11zM905.943 687.634h-68.869v-64.114h77.051v-19.269h-100.274v177.874h96.32v-19.269h-73.143v-56.229h68.869zM941.12 632.228c11.622-7.301 25.751-11.632 40.891-11.634h0.001c23.497 0 37.234 12.434 37.234 30.377 0 16.343-9.531 26.126-33.531 35.086-29.029 10.537-46.971 25.874-46.971 50.651 0 27.726 22.857 48.32 57.531 48.32 17.943 0 31.406-4.229 39.063-8.731l-6.354-18.743c-9.27 5.327-20.383 8.47-32.229 8.47-0.45 0-0.899-0.005-1.347-0.014l0.067 0.001c-24.274 0-33.509-14.514-33.509-26.651 0-16.64 10.811-24.8 35.36-34.286 30.080-11.611 45.12-26.103 45.12-52.251 0-27.429-20.046-51.451-62.011-51.451-17.143 0-35.886 5.28-45.394 11.611z" />
<glyph unicode="&#xe925;" glyph-name="compatible-lcn" horiz-adv-x="1097" d="M321.029 197.6h-321.029v482.514h118.491v-376.937h202.537zM671.017 247.246c-16.136-16.543-35.263-30.079-56.52-39.751l-1.172-0.477q-30.88-13.371-75.863-13.394-80.32 0-133.897 54.286-31.749 31.749-40.343 72.091t-8.594 102.606v32.457q0 62.263 8.594 102.857t40.343 72.343c16.534 16.894 36.273 30.574 58.243 40.070l1.186 0.456q32.389 13.371 74.4 13.394 44.96 0 76.206-13.577c22.327-9.973 41.369-23.358 57.386-39.716l0.031-0.032-78.743-78.743c-7.085 7.821-15.212 14.515-24.205 19.915l-0.481 0.268c-7.589 4.183-17.691 6.309-30.286 6.309q-30.103 0-45.989-20.206c-4.228-5.434-7.654-11.753-9.949-18.592l-0.131-0.448q-3.794-11.063-5.966-33.76t-2.126-66.743q0-58.537 4.297-82.286c2.857-15.794 7.497-28.069 13.897-36.914q15.886-20.571 45.989-20.571c12.594 0 22.56 2.103 29.966 6.286 9.506 5.86 17.715 12.543 24.957 20.155l0.048 0.051zM1097.143 197.6h-103.611l-154.537 242.56v-242.56h-118.469v482.514h103.611l154.514-242.583v242.583h118.491z" />
<glyph unicode="&#xe926;" glyph-name="conecta-y-reprocude" horiz-adv-x="1097" d="M322.057 615.794h79.817c44.183 0 61.234-28 61.234-56.754s-17.051-56.731-61.234-56.731h-40.869v-63.451h-38.857zM360.914 532.503h30.24c18.034 0 34.286 3.977 34.286 26.537s-16.16 26.537-34.286 26.537h-30.149zM487.383 615.794h38.857v-144.229h86.331v-32.709h-125.189zM784.526 505.783c0-47.863-28.229-71.131-75.589-71.131s-75.429 23.040-75.429 71.131v110.011h38.857v-110.011c0-19.337 4.96-38.423 36.571-38.423 27.771 0 36.571 12.114 36.571 38.423v110.011h38.857zM945.874 458.903c-11.041-14.784-28.492-24.253-48.154-24.253-0.147 0-0.293 0.001-0.44 0.002h0.022c-54.857 0-86.971 40.846-86.971 91.931 0 52.571 32.206 93.44 86.971 93.44 36.206 0 70.4-22.331 74.583-62.469h-37.189c-4.434 19.589-19.086 29.714-37.394 29.714-34.949 0-48-29.714-48-60.731 0-29.486 13.12-59.223 48-59.223 25.303 0 39.886 13.714 42.149 38.149h-39.177v29.029h74.309v-95.634h-24.709zM483.017 393.394h79.771c44.183 0 61.303-28.023 61.303-56.754s-17.12-56.777-61.303-56.777h-40.869v-63.406h-38.857zM521.874 310.126h30.263c18.034 0 34.286 3.954 34.286 26.514s-16.16 26.537-34.286 26.537h-30.217zM648.32 393.394h38.857v-144.251h86.309v-32.686h-125.166zM843.611 393.394h39.909l66.149-176.937h-40.389l-13.28 39.383h-66.286l-13.897-39.383h-39.383zM839.909 284.846h45.897l-22.331 64.869h-0.526zM992.571 285.348l-65.211 108.046h43.886l41.326-69.874 41.143 69.874h43.429l-65.623-109.029v-67.909h-38.857zM398.149 232.96c-14.126-13.92-29.714-21.12-49.874-21.12-32 0-57.371 19.589-57.371 53.12 0 24.846 18.88 41.714 39.726 51.383-9.417 11.657-16.869 22.309-16.869 37.714 0 24.571 22.606 40.457 46.171 40.457 26.789 0 48.64-14.446 48.64-42.446 0-20.571-13.714-34.743-31.497-44.137l22.857-28.091c3.221 6.126 5.491 13.267 6.394 20.827l0.029 0.293h30.56c-1.578-16.662-7.787-31.628-17.309-43.894l0.143 0.191 36.023-41.943h-43.2zM349.257 293.531c-12.389-5.463-24.823-14.903-24.823-29.303 0-12.937 11.931-23.337 25.303-23.337 12.663 0 21.577 6.446 29.714 15.634zM361.646 370.948c-0.068 0.001-0.148 0.002-0.229 0.002-8.622 0-15.611-6.989-15.611-15.611 0-0.025 0-0.049 0-0.074v0.004c0-11.154 7.177-18.286 13.897-26.514 9.874 6.446 18.080 12.389 18.080 25.303 0 0.038 0 0.082 0 0.126 0 9.041-7.151 16.411-16.106 16.764l-0.032 0.001zM0 438.834v250.011l247.977-250.011-247.977-249.966v249.966z" />
<glyph unicode="&#xe927;" glyph-name="consultoria-informatica" horiz-adv-x="1097" d="M598.354-73.143c-10.203 0.018-19.911 2.118-28.729 5.896l0.478-0.182c-17.833 7.438-31.85 21.055-39.627 38.116l-0.191 0.467-0.434 0.983-77.051 182.377-121.6-121.6c-13.278-13.495-31.738-21.857-52.15-21.857-10.176 0-19.866 2.078-28.67 5.833l0.478-0.181-0.571 0.229c-29.006 12.389-45.714 37.28-45.714 68.32v791.406c0 31.109 16.663 56.023 45.714 68.32 8.424 3.709 18.245 5.87 28.57 5.874h0.002c0.284 0.004 0.62 0.006 0.956 0.006 20.365 0 38.735-8.542 51.722-22.237l0.030-0.032 538.286-538.24c22.857-22.4 28.754-52 16-81.257-12.32-28.823-37.211-45.463-68.251-45.463h-139.886l82.286-194.834c3.535-8.27 5.59-17.893 5.59-27.995 0-10.289-2.132-20.081-5.978-28.956l0.182 0.472c-7.39-17.817-20.985-31.819-38.026-39.559l-0.465-0.189-0.96-0.411-94.057-39.84c-8.265-3.41-17.857-5.412-27.911-5.463h-0.020zM480.594 296.983l121.303-286.971 80.549 34.171-126.88 300.526h245.28l-515.131 515.063v-757.669z" />
<glyph unicode="&#xe928;" glyph-name="contactos" horiz-adv-x="1097" d="M1024 274.286v-109.714c0.009-0.209 0.014-0.454 0.014-0.7 0-9.72-7.88-17.6-17.6-17.6-0.246 0-0.491 0.005-0.735 0.015l0.035-0.001h-54.857v-128c-0.155-50.432-40.997-91.273-91.414-91.429h-694.872c-0.376-0.006-0.819-0.009-1.264-0.009-24.842 0-47.28 10.291-63.284 26.842l-0.024 0.025c-16.575 16.010-26.867 38.433-26.867 63.26 0 0.461 0.004 0.921 0.011 1.381l-0.001-0.069v841.143c-0.006 0.39-0.010 0.85-0.010 1.311 0 24.827 10.292 47.25 26.842 63.236l0.025 0.024c16.028 16.576 38.466 26.866 63.308 26.866 0.444 0 0.888-0.003 1.33-0.010l-0.067 0.001h694.857c0.371 0.006 0.809 0.009 1.248 0.009 24.854 0 47.304-10.29 63.323-26.842l0.023-0.024c16.563-16.051 26.843-38.502 26.843-63.353 0-0.428-0.003-0.856-0.009-1.283l0.001 0.065v-128h54.857c0.209 0.009 0.454 0.014 0.7 0.014 9.72 0 17.6-7.88 17.6-17.6 0-0.246-0.005-0.491-0.015-0.735l0.001 0.035v-109.714c0.009-0.209 0.014-0.454 0.014-0.7 0-9.72-7.88-17.6-17.6-17.6-0.246 0-0.491 0.005-0.735 0.015l0.035-0.001h-54.857v-73.143h54.857c0.209 0.009 0.454 0.014 0.7 0.014 9.72 0 17.6-7.88 17.6-17.6 0-0.246-0.005-0.491-0.015-0.735l0.001 0.035v-109.714c0.009-0.209 0.014-0.454 0.014-0.7 0-9.72-7.88-17.6-17.6-17.6-0.246 0-0.491 0.005-0.735 0.015l0.035-0.001h-54.857v-73.143h54.857c0.209 0.009 0.454 0.014 0.7 0.014 9.72 0 17.6-7.88 17.6-17.6 0-0.246-0.005-0.491-0.015-0.735l0.001 0.035zM759.429 243.451c0.002 0.542 0.003 1.183 0.003 1.825 0 20.895-1.147 41.523-3.381 61.823l0.224-2.505c-2.464 21.479-6.681 40.924-12.606 59.609l0.606-2.215c-5.522 18.706-13.221 35.030-23.009 49.853l0.426-0.687c-9.491 13.745-21.748 24.906-36.031 32.866l-0.54 0.276c-14.476 8.095-31.762 12.862-50.162 12.862-0.638 0-1.275-0.006-1.911-0.017l0.096 0.001q-3.429-2.286-19.154-11.726c-10.491-6.286-18.56-10.971-24.274-14.011s-13.417-6.857-23.154-11.429c-8.023-3.967-17.368-7.301-27.135-9.526l-0.865-0.166c-7.986-1.831-17.156-2.88-26.571-2.88s-18.586 1.049-27.4 3.037l0.829-0.157c-10.63 2.386-19.975 5.721-28.757 10.027l0.757-0.336q-14.537 6.857-23.131 11.429t-24.297 14.011q-15.726 9.44-19.131 11.726c-0.54 0.010-1.176 0.016-1.814 0.016-18.403 0-35.69-4.776-50.69-13.155l0.528 0.271c-14.822-8.24-27.078-19.4-36.34-32.789l-0.232-0.354c-9.365-14.135-17.057-30.46-22.23-47.87l-0.33-1.295c-5.351-16.487-9.577-35.933-11.888-55.962l-0.134-1.432c-2.010-17.884-3.156-38.616-3.156-59.616 0-0.537 0.001-1.074 0.002-1.61v0.083q0-41.76 24.023-69.44t58.834-27.703h329.143q34.857 0 58.857 27.726t24 69.44zM660.571 582.857q0 61.714-43.703 105.143t-104.869 43.429-104.846-43.429-43.726-105.143q0-61.143 43.726-104.571t104.846-43.429q61.143 0 104.846 43.429t43.726 104.571z" />
<glyph unicode="&#xe929;" glyph-name="control-remoto" horiz-adv-x="1097" d="M805.28 607.68c-0.103-0.002-0.224-0.002-0.346-0.002-12.755 0-23.192 9.921-24.016 22.468l-0.004 0.072c-5.609 57.017-52.858 101.326-110.649 102.262l-0.094 0.001c-0.069-0.001-0.151-0.001-0.232-0.001-8.884 0-16.634 4.86-20.735 12.066l-0.062 0.118c-2.046 3.636-3.251 7.982-3.251 12.609 0 4.791 1.292 9.28 3.546 13.138l-0.067-0.124c3.882 6.991 11.222 11.643 19.648 11.643 0.655 0 1.303-0.028 1.944-0.083l-0.083 0.006c83.375-1.233 151.44-65.153 159.218-146.66l0.050-0.655c0.090-0.784 0.141-1.692 0.141-2.613 0-12.807-9.946-23.291-22.535-24.149l-0.075-0.004c-0.823-0.046-1.6-0.091-2.4-0.091zM892.8 616.411c-0.011 0-0.023 0-0.036 0-4.264 0-8.288 1.031-11.835 2.857l0.145-0.068c-7.58 3.999-12.697 11.76-12.868 20.731v0.023c-4.998 96.419-81.432 173.471-177.128 179.425l-0.541 0.027c-8.977 0.293-16.673 5.5-20.509 13.008l-0.063 0.135c-1.676 3.348-2.658 7.294-2.658 11.47 0 5.269 1.563 10.174 4.25 14.275l-0.061-0.099c4.246 6.468 11.465 10.68 19.669 10.68 0.833 0 1.656-0.043 2.467-0.128l-0.101 0.009c121.381-7.584 217.764-104.814 223.976-225.868l0.024-0.578c0.045-0.549 0.071-1.188 0.071-1.834 0-8.369-4.312-15.731-10.836-19.984l-0.092-0.056c-3.915-2.523-8.697-4.023-13.83-4.023-0.016 0-0.031 0-0.047 0h0.002zM975.131 630.857c-0.008 0-0.017 0-0.026 0-4.304 0-8.362 1.048-11.935 2.902l0.144-0.068c-7.565 4.034-12.659 11.818-12.8 20.804v0.019c-6.682 132.533-111.637 238.525-243.112 246.819l-0.751 0.038c-7.297 0.312-13.723 3.794-17.974 9.095l-0.037 0.048c-3.284 4.207-5.266 9.571-5.266 15.397 0 0.582 0.020 1.16 0.059 1.732l-0.004-0.077c0.515 13.012 11.188 23.365 24.279 23.365 0.666 0 1.326-0.027 1.978-0.079l-0.086 0.006c157.482-9.889 282.476-136.19 290.257-293.332l0.029-0.725c0.041-0.526 0.065-1.138 0.065-1.756 0-8.406-4.338-15.799-10.898-20.062l-0.093-0.056c-3.913-2.534-8.692-4.048-13.823-4.069h-0.005zM707.177 587.68v-576.114c-0.13-46.731-37.978-84.579-84.696-84.709h-440.561c-0.344-0.005-0.751-0.008-1.158-0.008-23.026 0-43.825 9.537-58.661 24.877l-0.022 0.023c-15.349 14.845-24.877 35.626-24.877 58.632 0 0.417 0.003 0.833 0.009 1.248l-0.001-0.063v576c-0.005 0.353-0.009 0.769-0.009 1.185 0 23.006 9.529 43.786 24.855 58.61l0.023 0.022c14.858 15.362 35.656 24.9 58.682 24.9 0.407 0 0.813-0.003 1.219-0.009l-0.061 0.001h440.549c46.731-0.13 84.579-37.978 84.709-84.696v-0.012zM639.406 79.36v508.32c-0.127 9.303-7.635 16.81-16.925 16.937h-440.561c-9.303-0.127-16.81-7.635-16.937-16.925v-508.332c0.114-9.312 7.627-16.833 16.925-16.96h440.561c9.311 0.127 16.823 7.648 16.937 16.949v0.011zM426.011-29.189c5.824 5.98 9.415 14.159 9.415 23.177 0 18.355-14.879 33.234-33.234 33.234s-33.234-14.879-33.234-33.234c0-18.355 14.879-33.234 33.234-33.234 0.001 0 0.001 0 0.002 0v0c0.094-0.001 0.206-0.002 0.317-0.002 9.237 0 17.574 3.856 23.488 10.046l0.012 0.012z" />
<glyph unicode="&#xe92a;" glyph-name="dcss" horiz-adv-x="1097" d="M1097.143 502.217c1.714 79.109-56.846 104.731-121.783 104.731-61.554 0-128.229-33.257-128.229-105.623 0-53.486 35.909-74.149 73.143-87.177 42.309-14.857 73.509-18.011 73.509-41.349 0-21.12-22.674-30.994-41.143-30.994-15.383 0-26.491 0.891-34.606 8.091-7.703 8.046-11.429 18.857-11.429 36.366h-91.131c-3.863-81.783 59.429-115.497 129.486-115.497 66.286 0 137.623 36.411 137.623 113.714 0 38.194-17.966 68.777-70.857 88.526-29.943 11.246-75.634 12.617-75.634 36.869 0 21.143 20.571 26.080 36.32 26.080 10.674 0 20.571-1.829 27.429-7.2s11.109-13.486 10.674-26.537zM833.463 502.217c1.714 79.109-56.823 104.731-121.806 104.731-61.554 0-128.229-33.257-128.229-105.623 0-53.486 35.931-74.149 73.143-87.177 42.309-14.857 73.509-18.011 73.509-41.349 0-21.12-22.651-30.994-41.006-30.994-15.429 0-26.537 0.891-34.651 8.091-7.703 8.046-11.429 18.857-11.429 36.366h-91.223c-3.863-81.783 59.429-115.497 129.486-115.497 66.286 0 137.646 36.411 137.646 113.714 0 38.194-17.989 68.777-70.857 88.526-29.897 11.246-75.634 12.617-75.634 36.869 0 21.143 20.571 26.080 36.32 26.080 10.674 0 20.571-1.829 27.429-7.2s11.109-13.486 10.674-26.537zM461.714 400.183c-6.011-28.274-22.651-49.394-52.137-49.394-43.177 0-49.166 41.349-49.166 67.84 0 45.394 18.811 108.343 70.857 108.343 29.097 0 42.743-17.097 41.92-47.223h88.869c-1.691 96.183-62.377 127.2-130.286 127.2-103.84 0-165.394-86.286-165.394-190.103 0-85.851 42.743-146.080 131.223-146.080 126.926 0 150.857 96.64 156.411 129.417zM135.909 278.423h82.926l63.269 320.891h-84.571l-23.131-116.411c-14.56 26.514-38.491 34.606-64 34.606-66.286 0-110.286-61.577-110.286-150.103 0-28.32 9.851-94.857 81.211-94.857 25.646 0 44.457 10.354 58.994 32.366h0.869zM115.84 337.28c-22.126 0-31.269 17.006-31.269 38.217 0 33.714 11.131 77.28 44.869 77.28 21.806 0 30.331-17.074 30.331-43.131 0-27.863-11.086-72.366-44-72.366z" />
<glyph unicode="&#xe92b;" glyph-name="descarga" horiz-adv-x="1097" d="M1097.143 256q0-90.857-64.274-155.154t-155.154-64.274h-621.714q-105.737 0-180.846 75.154t-75.154 180.846c0.054 101.836 59.662 189.736 145.882 230.766l1.547 0.662c-0.777 11.429-1.143 19.611-1.143 24.571q0 121.143 85.714 206.857t206.857 85.714c121.624-0.035 225.914-74.209 270.139-179.783l0.718-1.932c25.356 22.013 58.69 35.428 95.158 35.428 40.299 0 76.772-16.383 103.122-42.851l0.005-0.005c26.473-26.352 42.855-62.821 42.855-103.117 0-29.433-8.74-56.824-23.767-79.721l0.34 0.552c49.799-11.665 91.881-39.245 121.663-76.982l0.349-0.458c29.708-36.248 47.714-83.083 47.714-134.123 0-0.756-0.004-1.512-0.012-2.267l0.001 0.115zM731.429 384c0.009 0.209 0.014 0.454 0.014 0.7 0 9.72-7.88 17.6-17.6 17.6-0.246 0-0.491-0.005-0.735-0.015l0.035 0.001h-128v201.143c-0.115 10.052-8.233 18.171-18.275 18.286h-109.725c-10.052-0.115-18.171-8.233-18.286-18.275v-201.154h-128c-10.042-0.14-18.146-8.243-18.286-18.272v-0.013c-0.007-0.186-0.011-0.404-0.011-0.623 0-4.883 1.968-9.307 5.155-12.521l201.142-201.142c3.441-3.189 8.063-5.145 13.143-5.145s9.702 1.956 13.155 5.156l-0.013-0.011 200.571 200.571c3.349 3.611 5.479 8.393 5.713 13.668l0.002 0.046z" />
<glyph unicode="&#xe92c;" glyph-name="diagrama-constelacion" horiz-adv-x="1097" d="M222.651 819.931c-0.013-34.604-28.068-62.651-62.674-62.651-34.614 0-62.674 28.060-62.674 62.674s28.060 62.674 62.674 62.674c0.008 0 0.016 0 0.024 0h-0.001c34.601 0 62.651-28.050 62.651-62.651 0-0.016 0-0.032 0-0.048v0.002zM418.286 819.931c0-0.007 0-0.015 0-0.023 0-34.639-28.081-62.72-62.72-62.72s-62.72 28.081-62.72 62.72c0 34.639 28.081 62.72 62.72 62.72 0.008 0 0.016 0 0.024 0h-0.001c34.616-0.026 62.671-28.081 62.697-62.695v-0.003zM222.651 642.286c-0.065-34.565-28.1-62.56-62.674-62.56-34.614 0-62.674 28.060-62.674 62.674s28.060 62.674 62.674 62.674c0.008 0 0.016 0 0.024 0h-0.001c0.020 0 0.045 0 0.069 0 34.564 0 62.583-28.019 62.583-62.583 0-0.072 0-0.145 0-0.217v0.011zM418.286 642.286c0-0.007 0-0.015 0-0.023 0-34.639-28.081-62.72-62.72-62.72s-62.72 28.081-62.72 62.72c0 34.639 28.081 62.72 62.72 62.72 0.008 0 0.016 0 0.024 0h-0.001c0.007 0 0.015 0 0.023 0 34.614 0 62.674-28.060 62.674-62.674 0-0.008 0-0.016 0-0.024v0.001zM222.651 254.56c-0.013-34.604-28.068-62.651-62.674-62.651-34.614 0-62.674 28.060-62.674 62.674s28.060 62.674 62.674 62.674c0.008 0 0.016 0 0.024 0h-0.001c34.604-0.013 62.651-28.068 62.651-62.674 0-0.008 0-0.016 0-0.024v0.001zM418.286 254.56c0-0.007 0-0.015 0-0.023 0-34.639-28.081-62.72-62.72-62.72s-62.72 28.081-62.72 62.72c0 34.639 28.081 62.72 62.72 62.72 0.008 0 0.016 0 0.024 0h-0.001c34.611-0.039 62.658-28.086 62.697-62.693v-0.004zM222.651 76.983c-0.052-34.575-28.092-62.583-62.674-62.583-34.614 0-62.674 28.060-62.674 62.674s28.060 62.674 62.674 62.674c0.008 0 0.016 0 0.024 0h-0.001c0.027 0 0.060 0 0.092 0 34.551 0 62.56-28.009 62.56-62.56 0-0.072 0-0.145 0-0.217v0.011zM418.286 76.983c-0.026-34.62-28.097-62.674-62.72-62.674-34.639 0-62.72 28.081-62.72 62.72s28.081 62.72 62.72 62.72c0.008 0 0.016 0 0.024 0h-0.001c0.014 0 0.030 0 0.046 0 34.601 0 62.651-28.050 62.651-62.651 0-0.040 0-0.080 0-0.121v0.006zM806.309 819.931c0-0.007 0-0.015 0-0.023 0-34.639-28.081-62.72-62.72-62.72s-62.72 28.081-62.72 62.72c0 34.639 28.081 62.72 62.72 62.72 0.008 0 0.016 0 0.024 0h-0.001c34.616-0.026 62.671-28.081 62.697-62.695v-0.003zM1001.851 819.931c0-34.627-28.070-62.697-62.697-62.697s-62.697 28.070-62.697 62.697c0 34.627 28.070 62.697 62.697 62.697 0.016 0 0.032 0 0.048 0h-0.003c34.597-0.052 62.625-28.097 62.651-62.695v-0.003zM806.309 642.286c0-0.007 0-0.015 0-0.023 0-34.639-28.081-62.72-62.72-62.72s-62.72 28.081-62.72 62.72c0 34.639 28.081 62.72 62.72 62.72 0.008 0 0.016 0 0.024 0h-0.001c0.014 0 0.030 0 0.046 0 34.601 0 62.651-28.050 62.651-62.651 0-0.016 0-0.032 0-0.048v0.002zM1001.851 642.286c0-34.627-28.070-62.697-62.697-62.697s-62.697 28.070-62.697 62.697c0 34.627 28.070 62.697 62.697 62.697 0.016 0 0.032 0 0.048 0h-0.003c34.604-0.013 62.651-28.068 62.651-62.674 0-0.008 0-0.016 0-0.024v0.001zM806.309 254.56c0-0.007 0-0.015 0-0.023 0-34.639-28.081-62.72-62.72-62.72s-62.72 28.081-62.72 62.72c0 34.639 28.081 62.72 62.72 62.72 0.008 0 0.016 0 0.024 0h-0.001c34.611-0.039 62.658-28.086 62.697-62.693v-0.004zM1001.851 254.56c0-34.627-28.070-62.697-62.697-62.697s-62.697 28.070-62.697 62.697c0 34.627 28.070 62.697 62.697 62.697 0.016 0 0.032 0 0.048 0h-0.003c34.591-0.065 62.612-28.102 62.651-62.693v-0.004zM806.309 76.983c-0.026-34.62-28.097-62.674-62.72-62.674-34.639 0-62.72 28.081-62.72 62.72s28.081 62.72 62.72 62.72c0.008 0 0.016 0 0.024 0h-0.001c0.014 0 0.030 0 0.046 0 34.601 0 62.651-28.050 62.651-62.651 0-0.040 0-0.080 0-0.121v0.006zM1001.851 76.983c-0.039-34.597-28.095-62.629-62.697-62.629-34.627 0-62.697 28.070-62.697 62.697s28.070 62.697 62.697 62.697c0.016 0 0.032 0 0.048 0h-0.003c0 0 0 0 0 0 34.601 0 62.651-28.050 62.651-62.651 0-0.040 0-0.080 0-0.121v0.006zM1060.526 476.64l-473.76 0.297 0.251 473.829-76.32 0.091-0.274-473.806-473.806 0.297v-76.366l473.714-0.32-0.251-473.806h76.32l0.32 473.76 473.806-0.32v76.343z" />
<glyph unicode="&#xe92d;" glyph-name="digital-signage" horiz-adv-x="1097" d="M755.36-73.143h-413.577c-14.667 0.439-26.389 12.433-26.389 27.166s11.722 26.727 26.349 27.165l0.040 0.001h413.577c14.667-0.439 26.389-12.433 26.389-27.166s-11.722-26.727-26.349-27.165l-0.040-0.001zM590.080 437.851c-5.007-7.127-10.042-13.359-15.455-19.238l0.118 0.129c-5.787-6.344-11.933-12.12-18.495-17.4l-0.316-0.246c-5.728-4.627-12.161-8.855-18.991-12.425l-0.643-0.306c-4.84-2.742-10.562-4.516-16.661-4.908l-0.116-0.006q-9.143 0-11.589 6.4c-1.453 4.082-2.292 8.79-2.292 13.694 0 0.256 0.002 0.512 0.007 0.767l-0.001-0.038c-0.003 0.144-0.004 0.313-0.004 0.483 0 1.443 0.11 2.86 0.321 4.243l-0.019-0.155c0.183 1.166 0.48 2.514 0.869 4.046l32.366 170.583c0.396 0.912 0.626 1.974 0.626 3.090 0 0.135-0.003 0.27-0.010 0.404l0.001-0.019c0 3.086-1.166 4.571-3.474 4.571q-6.377 0-27.2-23.703l-6.857 12.731c4.938 6.976 10.071 13.104 15.656 18.787l-0.021-0.022c5.898 6.109 12.117 11.792 18.676 17.070l0.387 0.301c5.749 4.619 12.189 8.922 18.994 12.64l0.686 0.343c4.972 2.981 10.907 4.874 17.255 5.207l0.094 0.004c0.209 0.014 0.452 0.022 0.698 0.022 3.645 0 6.87-1.8 8.834-4.561l0.023-0.033c2.080-3.086 3.177-8.64 3.177-16.777v-4.046c-0.077-1.668-0.281-3.237-0.605-4.762l0.034 0.19-30.72-144.526c-0.777-4.251-1.554-8.389-2.286-12.457-0.709-3.373-1.132-7.261-1.166-11.243v-0.026c0-6.56 1.531-9.806 4.571-9.806q6.354 0 27.154 23.109zM577.897 688.228q-27.749 0-27.749 33.531 0 32.389 30.057 32.366 28.366 0 28.366-32.366 0-33.531-30.674-33.531zM810.354 59.063h-523.566c-14.997 0-27.154 12.157-27.154 27.154v0 837.486c0 14.997 12.157 27.154 27.154 27.154v0h523.566c14.997 0 27.154-12.157 27.154-27.154v-837.486c0-14.997-12.157-27.154-27.154-27.154v0zM313.966 113.394h469.211v783.131h-469.211z" />
</font>
</defs>
</svg>
